<?xml version="1.0" standalone="no"?>
<!DOCTYPE svg PUBLIC "-//W3C//DTD SVG 1.1//EN" "http://www.w3.org/Graphics/SVG/1.1/DTD/svg11.dtd" >
<svg>
<metadata>
Created by FontForge 20090914 at Thu Feb 13 01:08:46 2014
 By www-data
Copyright (c) 2011 by vernon adams. All rights reserved.
</metadata>
<defs>
<font id="Muli-Light" horiz-adv-x="1244" >
  <font-face 
    font-family="Muli"
    font-weight="300"
    font-stretch="normal"
    units-per-em="2048"
    panose-1="2 0 5 3 4 0 0 2 0 4"
    ascent="1638"
    descent="-410"
    x-height="1026"
    cap-height="1456"
    bbox="-312 -541.001 2336 1979"
    underline-thickness="119"
    underline-position="-119"
    unicode-range="U+000D-U+FB02"
  />
<missing-glyph horiz-adv-x="599" 
 />
    <glyph glyph-name=".notdef" horiz-adv-x="599" 
 />
    <glyph glyph-name="uni000D" unicode="&#xd;" horiz-adv-x="0" 
 />
    <glyph glyph-name="space" unicode=" " horiz-adv-x="599" 
 />
    <glyph glyph-name="exclam" unicode="!" horiz-adv-x="737" 
d="M287 152h178v-175h-188zM450 385h-132v1082h132v-1082z" />
    <glyph glyph-name="quotedbl" unicode="&#x22;" horiz-adv-x="720" 
d="M471 1026l-34 441h138v-441h-104zM173 1026l-34 441h136v-441h-102z" />
    <glyph glyph-name="numbersign" unicode="#" horiz-adv-x="1242" 
d="M401 917h-273l9 93h282l81 426h99l-82 -426h323l82 426h96l-80 -426h253l-10 -93h-259l-60 -322h264l-14 -91h-269l-85 -441h-99l86 441h-324l-87 -441h-96l86 441h-264l7 91h275zM824 917h-323l-64 -322h326z" />
    <glyph glyph-name="dollar" unicode="$" 
d="M569 -216l5.99707 192.999h-13c-86 0 -165.833 16 -239.5 48s-135.5 80.333 -185.5 145l54 80c32.667 -36.667 65.5 -65.5 98.5 -86.5s66 -36.833 99 -47.5s65.833 -17.667 98.5 -21c30.667 -2.66699 61.334 -4 92.001 -4l21 588l-39 14
c-52 19.333 -102.667 40.166 -152 62.499s-93.5 49 -132.5 80s-70.333 68 -94 111s-35.5 95.167 -35.5 156.5c0 62.667 14.667 117.667 44 165s68.333 87 117 119s103.667 56 165 72c50.667 12.667 102.334 20.334 155.001 23.001l6 173h64l-6 -173
c23.333 -0.666992 47 -2.66699 71 -6c34 -4 67.667 -11 101 -21s65.5 -23.5 96.5 -40.5s59.5 -38.167 85.5 -63.5l-49 -93c-46 40 -98.667 68.333 -158 85c-50 14 -100.333 22 -151 24l-19 -580l32 -12c52 -20.667 102.833 -42.667 152.5 -66s94 -51.166 133 -83.499
s70.333 -70.166 94 -113.499s35.5 -95.333 35.5 -156c0 -46.667 -7.5 -88.5 -22.5 -125.5s-35.833 -69.5 -62.5 -97.5s-57.667 -51.833 -93 -71.5s-73.666 -35.834 -114.999 -48.501s-84.333 -21.667 -129 -27c-17.333 -2.66699 -35 -4.66699 -53 -6l-6 -196h-66z
M526.997 1354c-44.667 -9.33301 -84.833 -24.333 -120.5 -45s-64.667 -47 -87 -79s-33.5 -70.333 -33.5 -115c0 -47.333 11.833 -87.666 35.5 -120.999s55 -62.833 94 -88.5s83.167 -48.834 132.5 -69.501l56 -23l20 554c-32.667 -2 -65 -6.33301 -97 -13zM741.998 107.999
c48 11.333 89.168 28.0029 123.501 50.0029s61.166 49.333 80.499 82s29 70.667 29 114c0 49.333 -11.833 91.166 -35.5 125.499s-55 64.166 -94 89.499s-83.167 47.666 -132.5 66.999l-49 19l-19 -562c34 2.66699 66.333 7.66699 97 15z" />
    <glyph glyph-name="percent" unicode="%" horiz-adv-x="1985" 
d="M1487 644c-41.333 0 -77.167 -8.33203 -107.5 -24.999s-55.5 -38.834 -75.5 -66.501s-34.833 -59.5 -44.5 -95.5s-14.5 -73.333 -14.5 -112c0 -40 4.66699 -77.833 14 -113.5s24 -66.667 44 -93s45.333 -47.333 76 -63s67.334 -23.5 110.001 -23.5
c41.333 0 77.166 8.33301 107.499 25s55.5 39 75.5 67s34.833 60 44.5 96s14.5 73.333 14.5 112c0 40 -4.83301 77.667 -14.5 113s-24.5 66.333 -44.5 93s-45.333 47.667 -76 63s-67 23 -109 23zM1494 726.001c54 0 101.835 -9.5 143.502 -28.5s76.667 -45.167 105 -78.5
s49.833 -72.833 64.5 -118.5s22 -94.834 22 -147.501s-8.16699 -102.167 -24.5 -148.5s-39.5 -86.666 -69.5 -120.999s-66.333 -61.333 -109 -81s-90.334 -29.5 -143.001 -29.5c-54 0 -101.833 9.5 -143.5 28.5s-77 45 -106 78s-51 72.167 -66 117.5s-22.5 94.333 -22.5 147
c0 53.333 8.16699 103.166 24.5 149.499s39.666 86.833 69.999 121.5s67 61.834 110 81.501s91.167 29.5 144.5 29.5zM529.001 1463c54.667 0 102.999 -9.49707 144.999 -28.4971s77.333 -45.167 106 -78.5s50.5 -72.833 65.5 -118.5s22.5 -94.834 22.5 -147.501
s-8.16699 -102 -24.5 -148s-39.666 -86.167 -69.999 -120.5s-66.833 -61.333 -109.5 -81s-90 -29.5 -142 -29.5c-54.667 0 -103 9.66699 -145 29s-77.333 45.666 -106 78.999s-50.334 72.666 -65.001 117.999s-22 94 -22 146c0 54 8 104.167 24 150.5s39 86.5 69 120.5
s66.333 60.667 109 80s90.334 29 143.001 29zM1394 1452h105l-916 -1457h-105zM526 1385c-42 0 -78.332 -8.33594 -108.999 -25.0029s-56 -39 -76 -67s-35 -60 -45 -96s-15 -73.333 -15 -112c0 -40 5 -77.833 15 -113.5s25.167 -67 45.5 -94s46 -48.333 77 -64
s67.833 -23.5 110.5 -23.5c41.333 0 77 8.33301 107 25s54.833 38.834 74.5 66.501s34.167 59.334 43.5 95.001s14 72.834 14 111.501c0 40 -4.66699 77.833 -14 113.5s-23.833 67.167 -43.5 94.5s-44.834 49 -75.501 65s-67 24 -109 24z" />
    <glyph glyph-name="ampersand" unicode="&#x26;" horiz-adv-x="1647" 
d="M132 395c0 57.333 11.6699 109.001 35.0029 155.001s53.833 87.833 91.5 125.5s80.334 71.5 128.001 101.5s95.834 58 144.501 84l-75.5 75c-25 24.667 -47.5 50.5 -67.5 77.5s-36.167 56.167 -48.5 87.5s-18.5 66.666 -18.5 105.999c0 46.667 9.16699 87.5 27.5 122.5
s43.5 64.333 75.5 88s69.333 41.5 112 53.5s88.334 18 137.001 18c44.667 0 88.667 -5.5 132 -16.5s82 -27.833 116 -50.5s61.5 -51.334 82.5 -86.001s31.5 -75.667 31.5 -123c0 -42 -9 -81 -27 -117s-42.167 -69.5 -72.5 -100.5s-65.333 -59.5 -105 -85.5
s-80.834 -50 -123.501 -72l463 -466c27.333 38 52.166 79.833 74.499 125.5s41.333 93.5 57 143.5s27.667 101 36 153s12.5 102.667 12.5 152c0 17.333 -0.333008 30.833 -1 40.5s-1.33398 17.334 -2.00098 23.001s-1.33398 9.83398 -2.00098 12.501s-1.33398 6 -2.00098 10
h130c2 -25.333 3 -50.666 3 -75.999c0 -58 -4.66699 -116.833 -14 -176.5s-23.333 -118.334 -42 -176.001s-41.5 -113.5 -68.5 -167.5s-57.833 -104 -92.5 -150c32 -34 61.5 -63.5 88.5 -88.5s53.833 -46.5 80.5 -64.5s54.667 -32.833 84 -44.5s62.333 -20.834 99 -27.501
l-97 -70c-28.667 4 -54.834 11.167 -78.501 21.5s-47.5 24.333 -71.5 42s-49.333 38.667 -76 63l-92 84.5c-31.333 -32 -65.333 -62 -102 -90s-76.667 -52.167 -120 -72.5s-90.333 -36.5 -141 -48.5s-106 -18 -166 -18c-76.667 0 -147.667 9.5 -213 28.5
s-121.833 46.5 -169.5 82.5s-85 80.167 -112 132.5s-40.5 111.833 -40.5 178.5zM1109 282.001c0.666992 0 -5.99707 7.16797 -19.9971 21.501l-56.5 56.5l-81 80.5l-92.5 92.5l-251 251c-42.667 -20.667 -84.5 -43.334 -125.5 -68.001s-77.5 -52.334 -109.5 -83.001
s-57.667 -65 -77 -103s-29 -80.333 -29 -127c0 -45.333 9.83301 -87.666 29.5 -126.999s47.167 -73.333 82.5 -102s77.666 -51.167 126.999 -67.5s104 -24.5 164 -24.5c50 0 96 5.16699 138 15.5s80.667 24.5 116 42.5s68.166 39.167 98.499 63.5s59.166 50.5 86.499 78.5z
M629.006 909.002c34 18 67.6689 37.1689 101.002 57.502s63.166 42.5 89.499 66.5s47.666 50 63.999 78s24.5 58.333 24.5 91s-6.83301 61 -20.5 85s-31.334 43.5 -53.001 58.5s-46.167 26.167 -73.5 33.5s-54.666 11 -81.999 11c-30.667 0 -60 -4 -88 -12
s-52.5 -19.833 -73.5 -35.5s-37.667 -35 -50 -58s-18.5 -49.833 -18.5 -80.5c0 -29.333 4.5 -56.833 13.5 -82.5s21.5 -50.334 37.5 -74.001s35 -46.834 57 -69.501s46 -45.667 72 -69z" />
    <glyph glyph-name="quotesingle" unicode="'" horiz-adv-x="554" 
d="M238 1026l-34 441h137v-441h-103z" />
    <glyph glyph-name="parenleft" unicode="(" horiz-adv-x="628" 
d="M455 -268c-38 58 -73.6689 120.5 -107.002 187.5s-62.666 137 -87.999 210s-45.333 148 -60 225s-22 155.167 -22 234.5c0 80.667 6.5 159.334 19.5 236.001s31.667 151.5 56 224.5s53.833 144.167 88.5 213.5s73.334 137.333 116.001 204h95
c-82 -132.667 -145.167 -271.5 -189.5 -416.5s-66.5 -295.833 -66.5 -452.5c0 -72.667 5.83301 -147.167 17.5 -223.5s28.5 -151.833 50.5 -226.5s49 -147.334 81 -218.001s68 -136.667 108 -198h-99z" />
    <glyph glyph-name="parenright" unicode=")" horiz-adv-x="628" 
d="M189 -268l-96.001 0.000976562c37.333 60 71.666 123.667 102.999 191s58.333 137.5 81 210.5s40.334 148.833 53.001 227.5s19 159.667 19 243c0 70.667 -5.83301 143.167 -17.5 217.5s-28.5 148.5 -50.5 222.5s-49.167 146.667 -81.5 218
s-69.166 139.666 -110.499 204.999h101c38.667 -61.333 75 -126 109 -194s63.667 -138.333 89 -211s45.5 -147.5 60.5 -224.5s22.5 -154.833 22.5 -233.5c0 -82 -6.83301 -161.5 -20.5 -238.5s-33 -151.667 -58 -224s-54.667 -142.5 -89 -210.5s-72.5 -134.333 -114.5 -199z
" />
    <glyph glyph-name="asterisk" unicode="*" horiz-adv-x="1065" 
d="M546 1065l-172 -283l-87 54l207 250l-296 84l18 101l301 -132l-25 328h84v-330l250 137l49 -91l-276 -94l209 -263l-90 -52z" />
    <glyph glyph-name="plus" unicode="+" horiz-adv-x="1458" 
d="M685 608v439h106v-439h465v-104h-468v-439h-107v439h-463v104h467z" />
    <glyph glyph-name="comma" unicode="," horiz-adv-x="540" 
d="M213 176h140l-155 -441h-91z" />
    <glyph glyph-name="hyphen" unicode="-" horiz-adv-x="728" 
d="M100 508v102h545v-102h-545z" />
    <glyph glyph-name="period" unicode="." horiz-adv-x="540" 
d="M361 -11h-173v179h173v-179z" />
    <glyph glyph-name="slash" unicode="/" horiz-adv-x="717" 
d="M-22 -224l648 1691h121l-653 -1691h-116z" />
    <glyph glyph-name="zero" unicode="0" horiz-adv-x="1190" 
d="M612 1469c91.333 0 168.333 -18.999 231 -56.999s113.5 -91 152.5 -159s67 -148.833 84 -242.5s25.5 -196.167 25.5 -307.5c0 -109.333 -11 -208.5 -33 -297.5s-54.5 -165.333 -97.5 -229s-96.333 -112.834 -160 -147.501s-137.167 -52 -220.5 -52
c-86.667 0 -160.834 18.5 -222.501 55.5s-112 88.5 -151 154.5s-67.667 144.5 -86 235.5s-27.5 190.5 -27.5 298.5c0 115.333 10.667 219.166 32 311.499s53.333 170.833 96 235.5s95.334 114.334 158.001 149.001s135.667 52 219 52zM602 1359
c-60.667 0 -113.498 -15.335 -158.498 -46.002s-82.5 -73.5 -112.5 -128.5s-52.5 -120.833 -67.5 -197.5s-22.5 -161.334 -22.5 -254.001c0 -50.667 2.16699 -102 6.5 -154s11.666 -102 21.999 -150s24.333 -92.833 42 -134.5s40 -78 67 -109s59.167 -55.5 96.5 -73.5
s81 -27 131 -27c60.667 0 113.667 15.167 159 45.5s82.666 72.833 111.999 127.5s51.333 119.834 66 195.501s22 158.834 22 249.501c0 50 -2 101 -6 153s-11 102.333 -21 151s-23.667 94.334 -41 137.001s-39.5 80 -66.5 112s-59.333 57.167 -97 75.5
s-81.5 27.5 -131.5 27.5z" />
    <glyph glyph-name="one" unicode="1" horiz-adv-x="1190" 
d="M301 1285c48.667 16 96.332 36.166 142.999 60.499s92.334 51.5 137.001 81.5l130 20v-1335h228v-112h-580v117h230l-1 1193c-48 -30 -96.5 -57.167 -145.5 -81.5s-96.833 -45.166 -143.5 -62.499z" />
    <glyph glyph-name="two" unicode="2" horiz-adv-x="1190" 
d="M118 0l1.00488 131l174.5 162l178 164c58.333 54.667 113.666 109.334 165.999 164.001s98.166 108.5 137.499 161.5s70.666 105.167 93.999 156.5s35 101 35 149c0 39.333 -7.5 75.333 -22.5 108s-36.5 60.667 -64.5 84s-61.833 41.5 -101.5 54.5
s-83.834 19.5 -132.501 19.5c-42 0 -81.833 -5 -119.5 -15s-72 -24.167 -103 -42.5s-58.5 -40.833 -82.5 -67.5s-43.333 -56.334 -58 -89.001l-76 73c15.333 40 37.5 75.5 66.5 106.5s63.333 57.167 103 78.5s83.834 37.666 132.501 48.999s100 17 154 17
c62 0 119.667 -8.5 173 -25.5s99.666 -41.5 138.999 -73.5s70.166 -71 92.499 -117s33.5 -97.667 33.5 -155c0 -54.667 -9.33301 -108.167 -28 -160.5s-45.167 -104.5 -79.5 -156.5s-75.333 -104.167 -123 -156.5s-100.167 -105.666 -157.5 -159.999l-185 -167l-204 -178.5
h777v-114h-920z" />
    <glyph glyph-name="three" unicode="3" horiz-adv-x="1190" 
d="M160 1324c22 20.667 47.665 39.6699 76.998 57.0029s61.166 32.166 95.499 44.499s70.833 22 109.5 29s78.667 10.5 120 10.5c58 0 114.167 -8 168.5 -24s102.5 -39.5 144.5 -70.5s75.667 -69.333 101 -115s38 -98.5 38 -158.5c0 -46 -7.83301 -88.833 -23.5 -128.5
s-38.5 -74.334 -68.5 -104.001s-67.167 -53.667 -111.5 -72s-94.833 -29.833 -151.5 -34.5v-4c57.333 -5.33301 110.166 -17.5 158.499 -36.5s90 -44 125 -75s62.167 -67.833 81.5 -110.5s29 -90.667 29 -144c0 -63.333 -13.5 -120.5 -40.5 -171.5
s-63.667 -94.167 -110 -129.5s-100.166 -62.5 -161.499 -81.5s-126.333 -28.5 -195 -28.5c-78.667 0 -151.5 11.167 -218.5 33.5s-124.167 56.5 -171.5 102.5l57 89c42 -38 90.833 -67 146.5 -87s115.834 -30 180.501 -30c52.667 0 102 6.83301 148 20.5
s86.167 33.5 120.5 59.5s61.333 57.833 81 95.5s29.5 80.5 29.5 128.5c0 56 -10.5 103.5 -31.5 142.5s-51 70.667 -90 95s-86.5 42.166 -142.5 53.499s-118.667 17 -188 17c-9.33301 0 -18.5 -0.333008 -27.5 -1s-17.167 -1 -24.5 -1l1 113
c2.66699 -0.666992 6.66699 -1 12 -1h25c62 0 118.833 4.83301 170.5 14.5s96 25.5 133 47.5s65.667 51 86 87s30.5 80 30.5 132c0 46 -7.83301 85.667 -23.5 119s-37.667 60.833 -66 82.5s-62.166 37.667 -101.499 48s-82.333 15.5 -129 15.5
c-70.667 0 -134.667 -11 -192 -33s-106.666 -51.333 -147.999 -88z" />
    <glyph glyph-name="four" unicode="4" horiz-adv-x="1189" 
d="M769 0v363h-728v106l680 967h176v-972h222v-101h-226v-363h-124zM765 464v884l-108 -168l-506 -716h614z" />
    <glyph glyph-name="five" unicode="5" horiz-adv-x="1190" 
d="M254 214c42 -44 88.3281 -76.502 138.995 -97.502s105.334 -31.5 164.001 -31.5c60.667 0 114.834 9.66699 162.501 29s87.667 45.5 120 78.5s57 71.833 74 116.5s25.5 92 25.5 142c0 45.333 -7.33301 88.333 -22 129s-36.167 76.167 -64.5 106.5s-63.333 54.5 -105 72.5
s-89.5 27 -143.5 27c-58.667 0 -111.167 -9.16699 -157.5 -27.5s-82.166 -43.5 -107.499 -75.5c-9.33301 0 -21.666 -0.166992 -36.999 -0.5s-30.333 -0.5 -45 -0.5h-54v759h793v-114h-651l-15 -516c17.333 15.333 37 28.666 59 39.999s45.167 20.833 69.5 28.5
s49.5 13.334 75.5 17.001s52 5.5 78 5.5c71.333 0 135.5 -11.333 192.5 -34s105.333 -54.167 145 -94.5s70 -88.166 91 -143.499s31.5 -116 31.5 -182c0 -67.333 -11.833 -129.666 -35.5 -186.999s-57.667 -107 -102 -149s-98.333 -75 -162 -99s-135.5 -36 -215.5 -36
c-66 0 -129.167 10.667 -189.5 32s-114.166 55 -161.499 101z" />
    <glyph glyph-name="six" unicode="6" horiz-adv-x="1190" 
d="M966 1273c-34.667 28 -74.833 49.3369 -120.5 64.0039s-97.5 22 -155.5 22c-52 0 -99.167 -8.66699 -141.5 -26s-80.333 -41.333 -114 -72s-62.834 -66.834 -87.501 -108.501s-45.167 -87 -61.5 -136s-28.5 -100.5 -36.5 -154.5s-12 -108.333 -12 -163
c0 -19.333 0.166992 -33.5 0.5 -42.5s0.833008 -15.333 1.5 -19s1.16699 -5.66699 1.5 -6s0.5 -1.16602 0.5 -2.49902c16.667 47.333 38.834 88.666 66.501 123.999s59.5 64.666 95.5 87.999s76 40.833 120 52.5s90.667 17.5 140 17.5c67.333 0 128.333 -10.667 183 -32
s101.167 -51.833 139.5 -91.5s67.833 -87.5 88.5 -143.5s31 -119 31 -189c0 -68 -11.5 -131.167 -34.5 -189.5s-55.5 -108.833 -97.5 -151.5s-92.833 -76.167 -152.5 -100.5s-126.167 -36.5 -199.5 -36.5c-85.333 0 -159.833 17.167 -223.5 51.5
s-116.667 82.666 -159 144.999s-74 136.666 -95 222.999s-31.5 181.5 -31.5 285.5c0 107.333 12.5 208.666 37.5 303.999s61.833 178.833 110.5 250.5s109.167 128.334 181.5 170.001s155.5 62.5 249.5 62.5c66.667 0 126.5 -10 179.5 -30s99.167 -49 138.5 -87z
M631.001 806.004c-47.333 0 -93.002 -7.49805 -137.002 -22.498s-83 -35.833 -117 -62.5s-61.333 -58.167 -82 -94.5s-31 -75.833 -31 -118.5c0 -48 5.83301 -97.167 17.5 -147.5s31.667 -95.833 60 -136.5s66 -74 113 -100s105.5 -39 175.5 -39
c52 0 98.833 9.16699 140.5 27.5s77.167 43.666 106.5 75.999s51.833 70.5 67.5 114.5s23.5 91.667 23.5 143c0 50.667 -6.66699 98 -20 142s-33.666 82.167 -60.999 114.5s-62.166 57.666 -104.499 75.999s-92.833 27.5 -151.5 27.5z" />
    <glyph glyph-name="seven" unicode="7" horiz-adv-x="1189" 
d="M1071 1436v-73l-601 -1363h-143l603 1322h-817v114h958z" />
    <glyph glyph-name="eight" unicode="8" horiz-adv-x="1190" 
d="M113 361c0 48.667 8.16699 93.998 24.5 135.998s40 79.833 71 113.5s69 62.667 114 87s96.167 43.5 153.5 57.5v3c-51.333 10.667 -97.166 26.667 -137.499 48s-74.5 47 -102.5 77s-49.333 64.167 -64 102.5s-22 79.5 -22 123.5c0 56 12.667 106.333 38 151
s59.5 82.5 102.5 113.5s92.667 54.667 149 71s115.166 24.5 176.499 24.5c58.667 0 114.667 -7.83301 168 -23.5s100.333 -38.5 141 -68.5s73.167 -66.833 97.5 -110.5s36.5 -93.5 36.5 -149.5c0 -42.667 -7.66699 -82.834 -23 -120.501s-37.333 -71.667 -66 -102
s-63 -57 -103 -80s-84.667 -41.5 -134 -55.5v-3c123.333 -32 214.833 -79.667 274.5 -143s89.5 -144.666 89.5 -243.999c0 -62.667 -13.5 -118.334 -40.5 -167.001s-63.667 -89.667 -110 -123s-100.5 -58.666 -162.5 -75.999s-128 -26 -198 -26
c-63.333 0 -123.5 8.33301 -180.5 25s-107.167 41.334 -150.5 74.001s-77.833 72.834 -103.5 120.501s-38.5 102.5 -38.5 164.5zM245 377.998c0 -48 9.16602 -90.333 27.499 -127s43.666 -67.167 75.999 -91.5s70.333 -42.833 114 -55.5s90.834 -19 141.501 -19
s97.5 6.66699 140.5 20s80.333 32.5 112 57.5s56.5 55.333 74.5 91s27 75.834 27 120.501c0 49.333 -8.5 92.333 -25.5 129s-41.167 68 -72.5 94s-69.166 47.167 -113.499 63.5s-93.833 28.833 -148.5 37.5c-52 -9.33301 -99.667 -22.833 -143 -40.5
s-80.5 -39.834 -111.5 -66.501s-55.167 -57.667 -72.5 -93s-26 -75.333 -26 -120zM276.999 1109c0 -84 27.832 -149.831 83.499 -197.498s136.834 -80.167 243.501 -97.5c107.333 14.667 188.666 45.667 243.999 93s83 111 83 191c0 45.333 -8.83301 84.666 -26.5 117.999
s-41.334 61 -71.001 83s-64.167 38.333 -103.5 49s-80.666 16 -123.999 16c-41.333 0 -81.666 -5.5 -120.999 -16.5s-74.333 -27.333 -105 -49s-55.5 -48.334 -74.5 -80.001s-28.5 -68.167 -28.5 -109.5z" />
    <glyph glyph-name="nine" unicode="9" horiz-adv-x="1190" 
d="M243 184c30.667 -34 69.499 -60.6699 116.499 -80.0029s102.5 -29 166.5 -29c74.667 0 140 18.167 196 54.5s102.833 85.166 140.5 146.499s65.834 132 84.501 212s28 163.667 28 251c0 11.333 -0.166992 22.833 -0.5 34.5s-0.833008 23.167 -1.5 34.5
c-36 -83.333 -89.667 -146.833 -161 -190.5s-157.666 -65.5 -258.999 -65.5c-68 0 -129.5 11.167 -184.5 33.5s-102 53.333 -141 93s-69 86.834 -90 141.501s-31.5 114.667 -31.5 180c0 66 11.5 127.667 34.5 185s55.5 107 97.5 149s93 75 153 99s127 36 201 36
c80.667 0 152.5 -15.167 215.5 -45.5s116 -75.166 159 -134.499s75.667 -132.666 98 -219.999s33.5 -187.666 33.5 -300.999c0 -116 -12.667 -222.5 -38 -319.5s-62.5 -180.5 -111.5 -250.5s-109.5 -124.333 -181.5 -163s-154.333 -58 -247 -58
c-70.667 0 -132.334 10.833 -185.001 32.5s-95.667 53.5 -129 95.5zM581.999 660.997c46 0 91.1689 7.50098 135.502 22.501s83.833 35.5 118.5 61.5s62.5 56.833 83.5 92.5s31.5 74.167 31.5 115.5c0 48 -6.83301 96.167 -20.5 144.5s-35.334 91.833 -65.001 130.5
s-67.834 70.167 -114.501 94.5s-103 36.5 -169 36.5c-51.333 0 -98.166 -8.83301 -140.499 -26.5s-78.5 -42.334 -108.5 -74.001s-53.333 -69 -70 -112s-25 -89.5 -25 -139.5c0 -49.333 6.83301 -95 20.5 -137s34.5 -78.5 62.5 -109.5s63.667 -55.333 107 -73
s94.666 -26.5 153.999 -26.5z" />
    <glyph glyph-name="colon" unicode=":" horiz-adv-x="540" 
d="M331 769h-172v179h173zM361 -11h-173v179h173v-179z" />
    <glyph glyph-name="semicolon" unicode=";" horiz-adv-x="540" 
d="M213 176h140l-155 -441h-91zM333 769h-174v176h174v-176z" />
    <glyph glyph-name="less" unicode="&#x3c;" horiz-adv-x="1458" 
d="M398 552l832 -374v-114l-993 450l5 75l992 466v-116z" />
    <glyph glyph-name="equal" unicode="=" horiz-adv-x="1458" 
d="M1254 398v-106h-1036v106h1036zM1254 821v-107h-1038v107h1038z" />
    <glyph glyph-name="greater" unicode="&#x3e;" horiz-adv-x="1458" 
d="M1083 552l-842 399v115l995 -478l-6 -71l-993 -440v110z" />
    <glyph glyph-name="question" unicode="?" horiz-adv-x="1032" 
d="M390 380l-13.999 177.004c-0.666992 3.33301 -1 8 -1 14c0 36 9.83301 69.167 29.5 99.5s44.167 59.666 73.5 87.999s61.333 56.5 96 84.5s66.667 57.333 96 88s53.833 63.5 73.5 98.5s29.5 73.833 29.5 116.5s-7.83301 79.167 -23.5 109.5s-36.167 55.166 -61.5 74.499
s-54.333 33.5 -87 42.5s-66.334 13.5 -101.001 13.5c-31.333 0 -60.5 -2.16699 -87.5 -6.5s-52.5 -9.83301 -76.5 -16.5s-46.667 -13.667 -68 -21l-60 -20v106c42.667 23.333 87 40.166 133 50.499s90 15.5 132 15.5c59.333 0 114.833 -6.83301 166.5 -20.5
s96.667 -34.5 135 -62.5s68.5 -63.333 90.5 -106s33 -92.667 33 -150c0 -64 -13.333 -119.667 -40 -167s-60.667 -88 -102 -122l-28 -23.5l-25 -21.5l-104.5 -96c-27.667 -24.667 -49.667 -47.334 -66 -68.001s-27.833 -41.667 -34.5 -63s-10 -48 -10 -80
c0 -19.333 1 -41 3 -65l5 -69h-106zM550.001 -10.9961h-173v179h173v-179z" />
    <glyph glyph-name="at" unicode="@" horiz-adv-x="1895" 
d="M1240 975l1.99707 -0.00195312l33 139l118 9l-67 -254l-41 -154.5c-12 -45.667 -22.167 -86.167 -30.5 -121.5s-14.666 -65.833 -18.999 -91.5s-6.5 -47.5 -6.5 -65.5c0 -34.667 7.83301 -61.834 23.5 -81.501s45.5 -29.5 89.5 -29.5s86 13.5 126 40.5
s75.333 62.833 106 107.5s55.167 96 73.5 154s27.5 118 27.5 180c0 87.333 -16.833 167.833 -50.5 241.5s-81 137 -142 190s-133.833 94.333 -218.5 124s-177.667 44.5 -279 44.5c-70 0 -136.833 -8.66699 -200.5 -26s-122.667 -41.833 -177 -73.5
s-103.5 -69.667 -147.5 -114s-81.667 -93.333 -113 -147s-55.333 -111.334 -72 -173.001s-25 -125.5 -25 -191.5c0 -67.333 8 -131.5 24 -192.5s39.167 -117.667 69.5 -170s67.166 -99.666 110.499 -141.999s92.5 -78.5 147.5 -108.5s115.167 -53.167 180.5 -69.5
s135 -24.5 209 -24.5c106.667 0 205.834 15 297.501 45s170.834 74 237.501 132l50 -46c-32 -33.333 -69.667 -63.333 -113 -90s-90.5 -49.5 -141.5 -68.5s-105.167 -33.667 -162.5 -44s-116 -15.5 -176 -15.5c-121.333 0 -233.5 20 -336.5 60s-191.833 95.5 -266.5 166.5
s-133 155 -175 252s-63 202.5 -63 316.5c0 76 10 148.833 30 218.5s48.333 134.334 85 194.001s80.667 114 132 163s108.5 90.667 171.5 125s130.833 61 203.5 80s148.667 28.5 228 28.5c110 0 213.167 -17.167 309.5 -51.5s180 -82.166 251 -143.499s127 -134 168 -218
s61.5 -176 61.5 -276c0 -80 -13.5 -154.5 -40.5 -223.5s-62.5 -129.167 -106.5 -180.5s-94 -91.666 -150 -120.999s-112.667 -44 -170 -44c-58 0 -105.667 17.833 -143 53.5s-59 84.5 -65 146.5c-17.333 -28 -36.666 -52.5 -57.999 -73.5s-44.333 -38.5 -69 -52.5
s-50.167 -24.5 -76.5 -31.5s-52.5 -10.5 -78.5 -10.5c-38 0 -75.167 7.33301 -111.5 22s-68.666 36.5 -96.999 65.5s-51 65 -68 108s-25.5 93.167 -25.5 150.5c0 46 6.16699 91 18.5 135s29.333 85.5 51 124.5s47.667 75 78 108s63.166 61.5 98.499 85.5
s72.666 42.667 111.999 56s79.333 20 120 20c30.667 0 59.334 -3.83301 86.001 -11.5s50.5 -18.834 71.5 -33.501s38.5 -32.167 52.5 -52.5s23.667 -43.166 29 -68.499zM635.997 585.998c0 -33.333 4.66699 -63.834 14 -91.501s23 -51.5 41 -71.5s39.833 -35.5 65.5 -46.5
s55.167 -16.5 88.5 -16.5c48.667 0 94.167 13.667 136.5 41s79 63.166 110 107.499s55.333 94.833 73 151.5s26.5 114.334 26.5 173.001c0 30.667 -3.5 59 -10.5 85s-18.167 48.333 -33.5 67s-35.333 33.167 -60 43.5s-55 15.5 -91 15.5c-52 0 -100 -14.167 -144 -42.5
s-82 -64.666 -114 -108.999s-57 -93.5 -75 -147.5s-27 -107 -27 -159z" />
    <glyph glyph-name="A" unicode="A" horiz-adv-x="1425" 
d="M177 0h-139l609 1456h151l603 -1456h-141l-179 426h-734zM382 520h665l-246 648l-79 221l-77 -221z" />
    <glyph glyph-name="B" unicode="B" horiz-adv-x="1352" 
d="M224 0l0.000976562 1456h277c42 0 87.167 -0.5 135.5 -1.5s96.166 -4.66699 143.499 -11s93 -16.333 137 -30s82.667 -33.167 116 -58.5s60 -57.5 80 -96.5s30 -86.833 30 -143.5c0 -46 -8.5 -88.5 -25.5 -127.5s-40.167 -73.667 -69.5 -104s-64 -55.833 -104 -76.5
s-83 -35.334 -129 -44.001c58.667 -2 112.5 -11.667 161.5 -29s90.833 -41.666 125.5 -72.999s61.667 -69.166 81 -113.499s29 -94.5 29 -150.5c0 -52.667 -10 -103 -30 -151s-49.667 -90.167 -89 -126.5s-88.5 -65.333 -147.5 -87s-127.833 -32.5 -206.5 -32.5h-515z
M354.001 698.999l0.000976562 -585h316c129.333 0 229.5 23 300.5 69s106.5 117.667 106.5 215c0 57.333 -10.333 105.333 -31 144s-50.834 69.667 -90.501 93s-88.667 39.833 -147 49.5s-125.5 14.5 -201.5 14.5h-253zM356.002 811.999l223 -0.000976562
c52.667 0 104.667 4 156 12s97.333 22.333 138 43s73.334 48.667 98.001 84s37 80 37 134s-10.833 97.833 -32.5 131.5s-51.167 59.834 -88.5 78.501s-81.333 31.167 -132 37.5s-105.334 9.5 -164.001 9.5h-235v-530z" />
    <glyph glyph-name="C" unicode="C" horiz-adv-x="1399" 
d="M1204 1266c-88 68 -206.667 102.004 -356 102.004c-99.333 0 -185.333 -18.833 -258 -56.5s-133 -87.334 -181 -149.001s-83.667 -131.834 -107 -210.501s-35 -159 -35 -241c0 -82.667 10.833 -161.334 32.5 -236.001s55.334 -140.5 101.001 -197.5
s103.667 -102.333 174 -136s154.166 -50.5 251.499 -50.5c88.667 0 169.167 10.167 241.5 30.5s132.166 51.5 179.499 93.5l42 -97c-57.333 -46 -127.666 -81 -210.999 -105s-178 -36 -284 -36c-108 0 -203.5 19.167 -286.5 57.5s-152.5 90.666 -208.5 156.999
s-98.5 143.833 -127.5 232.5s-43.5 183.667 -43.5 285c0 104 16 202.667 48 296s78.333 175.5 139 246.5s134.5 127.333 221.5 169s185.5 62.5 295.5 62.5c88 0 165.5 -11.167 232.5 -33.5s129.5 -58.5 187.5 -108.5z" />
    <glyph glyph-name="D" unicode="D" horiz-adv-x="1546" 
d="M217 1456h298.999c91.333 0 177.333 -4.16699 258 -12.5s155 -22.833 223 -43.5s129 -48.667 183 -84s99.833 -80 137.5 -134s66.5 -118.667 86.5 -194s30 -163 30 -263c0 -110 -18.5 -209.667 -55.5 -299s-90.667 -165.5 -161 -228.5s-156.166 -111.667 -257.499 -146
s-216 -51.5 -344 -51.5h-405zM344.999 114h290.001c112.667 0 210.5 15 293.5 45s151.667 71.667 206 125s94.666 117 120.999 191s39.5 155 39.5 243c0 116 -16.333 213.667 -49 293s-81 143.5 -145 192.5s-143.5 84.333 -238.5 106s-204.5 32.5 -328.5 32.5h-189v-1228z
" />
    <glyph glyph-name="E" unicode="E" horiz-adv-x="1218" 
d="M1096 114v-114h-870v1456h842v-114h-710v-538h670v-113h-672v-577h740z" />
    <glyph glyph-name="F" unicode="F" horiz-adv-x="1137" 
d="M350 0h-132v1456h818v-114h-686v-543h650v-113h-650v-686z" />
    <glyph glyph-name="G" unicode="G" horiz-adv-x="1530" 
d="M857 624l-0.00292969 114.003h499l-4 -663c-74.667 -36 -153.667 -61.333 -237 -76s-168 -22 -254 -22c-118.667 0 -223.167 17.333 -313.5 52s-166 83.667 -227 147s-107 139.166 -138 227.499s-46.5 186.5 -46.5 294.5s16.333 209.5 49 304.5
s79.834 178.167 141.501 249.5s137.167 127.666 226.5 168.999s191 62 305 62c54 0 105.833 -4.66699 155.5 -14s95 -23.333 136 -42s76.5 -42 106.5 -70s52 -60.667 66 -98l-56 -70c-16.667 30.667 -38.834 57.167 -66.501 79.5s-59.667 40.833 -96 55.5
s-76.166 25.667 -119.499 33s-89 11 -137 11c-94.667 0 -178 -18.333 -250 -55s-132.167 -85.334 -180.5 -146.001s-84.833 -130.5 -109.5 -209.5s-37 -160.5 -37 -244.5c0 -92.667 12.5 -177.167 37.5 -253.5s62.833 -141.833 113.5 -196.5s114 -97 190 -127
s165 -45 267 -45c64.667 0 126.334 5 185.001 15s113.334 27 164.001 51l2 467h-372z" />
    <glyph glyph-name="H" unicode="H" horiz-adv-x="1555" 
d="M351 0h-131v1456h135v-650h868v650h130v-1456h-134v693h-868v-693z" />
    <glyph glyph-name="I" unicode="I" horiz-adv-x="591" 
d="M370 0h-135v1456h135v-1456z" />
    <glyph glyph-name="J" unicode="J" horiz-adv-x="939" 
d="M168 126c38.667 -23.333 93.333 -34.9961 164 -34.9961c50.667 0 93.667 9.16699 129 27.5s64.333 44.5 87 78.5s39.167 75.167 49.5 123.5s15.833 102.166 16.5 161.499l6 974h128l-4 -963c-0.666992 -88 -10.5 -164.333 -29.5 -229s-46.333 -118.334 -82 -161.001
s-79.334 -74.334 -131.001 -95.001s-110.5 -31 -176.5 -31c-38 0 -71.667 4.66699 -101 14s-55.666 22.666 -78.999 39.999z" />
    <glyph glyph-name="K" unicode="K" horiz-adv-x="1294" 
d="M362 769l696 687h161l-686 -698l738 -758h-183l-728 759v-759h-132v1456h134v-687z" />
    <glyph glyph-name="L" unicode="L" horiz-adv-x="1120" 
d="M1068 0h-844v1456h132v-1342h712v-114z" />
    <glyph glyph-name="M" unicode="M" horiz-adv-x="2002" 
d="M346 0h-130v1456h208l476 -1060l112 -261l111 260l485 1061h200v-1456h-132v940v450l-93 -241l-526 -1149h-95l-507 1124l-109 256v-443v-937z" />
    <glyph glyph-name="N" unicode="N" horiz-adv-x="1594" 
d="M343 1322v-1322h-131v1456h177l756 -1133l134 -221v340v1014h122v-1456h-180l-759 1132z" />
    <glyph glyph-name="O" unicode="O" horiz-adv-x="1663" 
d="M1551 730c0 -110 -16.1709 -211.163 -48.5039 -303.496s-79.166 -171.833 -140.499 -238.5s-136.166 -118.5 -224.499 -155.5s-188.166 -55.5 -299.499 -55.5c-109.333 0 -207.5 17.667 -294.5 53s-160.833 85.666 -221.5 150.999s-107.167 144.166 -139.5 236.499
s-48.5 195.5 -48.5 309.5c0 110 16.167 211.167 48.5 303.5s79.166 172 140.499 239s136.333 119.333 225 157s189.334 56.5 302.001 56.5c108 0 205.333 -17.833 292 -53.5s160.334 -86.334 221.001 -152.001s107.167 -144.834 139.5 -237.501s48.5 -196 48.5 -310z
M270.996 725.004c0 -88.667 12.167 -171.501 36.5 -248.501s60.5 -144 108.5 -201s107.333 -102 178 -135s152.334 -49.5 245.001 -49.5c94 0 176.5 16.333 247.5 49s130.167 77.834 177.5 135.501s82.833 125.667 106.5 204s35.5 163.5 35.5 255.5
c0 88.667 -11.667 171.667 -35 249s-58.5 144.5 -105.5 201.5s-105.833 101.833 -176.5 134.5s-153.334 49 -248.001 49c-93.333 0 -175.5 -17.667 -246.5 -53s-130.5 -82.5 -178.5 -141.5s-84.167 -127.5 -108.5 -205.5s-36.5 -159.333 -36.5 -244z" />
    <glyph glyph-name="P" unicode="P" horiz-adv-x="1274" 
d="M350 0l-126.001 0.000976562v1456h328c56 0 110.833 -2.5 164.5 -7.5s104.5 -13.667 152.5 -26s92 -28.833 132 -49.5s74.5 -46.834 103.5 -78.501s51.667 -69.334 68 -113.001s24.5 -94.5 24.5 -152.5c0 -75.333 -16.167 -139.833 -48.5 -193.5
s-75.666 -97.667 -129.999 -132s-117.5 -59.666 -189.5 -75.999s-147.667 -24.5 -227 -24.5h-246zM355.999 717.001h291c60 0 115.333 6 166 18s94.167 30.667 130.5 56s64.833 57.333 85.5 96s31 84.667 31 138c0 63.333 -11.167 115.5 -33.5 156.5s-54 73.333 -95 97
s-90 40.167 -147 49.5s-119.833 14 -188.5 14h-240v-625z" />
    <glyph glyph-name="Q" unicode="Q" horiz-adv-x="1664" 
d="M270 725c0 -88 12.166 -170.5 36.499 -247.5s60.333 -144.167 108 -201.5s107 -102.5 178 -135.5s153.167 -49.5 246.5 -49.5c94 0 176.5 16.333 247.5 49s130.167 77.834 177.5 135.501s82.833 125.667 106.5 204s35.5 163.5 35.5 255.5
c0 88.667 -11.833 171.667 -35.5 249s-59 144.333 -106 201s-105.833 101.334 -176.5 134.001s-153 49 -247 49c-62 0 -119.167 -8 -171.5 -24s-99.666 -38.333 -141.999 -67s-79.5 -63 -111.5 -103s-58.833 -83.833 -80.5 -131.5s-38 -98.334 -49 -152.001
s-16.5 -108.834 -16.5 -165.501zM1605 -188c-18.667 -3.33301 -41.335 -5.83301 -68.002 -7.5s-52.667 -2.5 -78 -2.5c-74 0 -137.333 2 -190 6s-98 9.83301 -136 17.5s-70 17 -96 28s-49.333 23.167 -70 36.5s-40 27.666 -58 42.999l-60 49c-106 0 -202.667 17.667 -290 53
s-162.166 86.166 -224.499 152.499s-110.5 146.666 -144.5 240.999s-51 200.5 -51 318.5c0 108 16.5 207 49.5 297s80.333 167.5 142 232.5s136.334 115.667 224.001 152s186.5 54.5 296.5 54.5c108 0 205.167 -18 291.5 -54s159.5 -86.667 219.5 -152
s106.167 -143.5 138.5 -234.5s48.5 -191.5 48.5 -301.5c0 -93.333 -12 -182.666 -36 -267.999s-59.833 -161.666 -107.5 -228.999s-107 -123.5 -178 -168.5s-153.167 -73.5 -246.5 -85.5c24.667 -17.333 57.5 -30.833 98.5 -40.5s84.333 -16.667 130 -21s90.5 -7 134.5 -8
s81.667 -1.5 113 -1.5c30 0 57.833 0.833008 83.5 2.5s47.167 3.83398 64.5 6.50098v-116z" />
    <glyph glyph-name="R" unicode="R" horiz-adv-x="1377" 
d="M1139 0l-151.996 415.997c-18 48.667 -36 89.167 -54 121.5s-39.333 58.166 -64 77.499s-54 33 -88 41s-76 12 -126 12h-298v-668h-130v1456h342c39.333 0 82.166 -0.666992 128.499 -2s92.833 -5.66602 139.5 -12.999s91.667 -18.5 135 -33.5s81.833 -36.333 115.5 -64
s60.667 -62.667 81 -105s30.5 -94.166 30.5 -155.499c0 -48.667 -8.33301 -93.167 -25 -133.5s-40.334 -75.666 -71.001 -105.999s-67.334 -55.666 -110.001 -75.999s-90 -34.833 -142 -43.5c-1.33301 -4 -2 -6.66699 -2 -8c0 -0.666992 0.166992 -1.16699 0.5 -1.5
s0.5 -0.833008 0.5 -1.5c48 -9.33301 86.833 -25.5 116.5 -48.5s56.167 -54.5 79.5 -94.5s46.166 -89.667 68.499 -149l83.5 -212l80 -209h-139zM361.004 782.997l293.001 0.000976562c48.667 0 97.167 4.16699 145.5 12.5s91.833 23.166 130.5 44.499
s70.167 50.166 94.5 86.499s36.5 82.5 36.5 138.5s-10 101.833 -30 137.5s-47.833 63.834 -83.5 84.501s-77.834 35 -126.501 43s-101.667 12 -159 12h-301v-559z" />
    <glyph glyph-name="S" unicode="S" 
d="M207 250c32.667 -36.667 65.499 -65.498 98.499 -86.498s66 -36.833 99 -47.5s65.833 -17.5 98.5 -20.5s65 -4.5 97 -4.5c57.333 0 110 5.66699 158 17s89.167 28 123.5 50s61.166 49.333 80.499 82s29 70.667 29 114c0 49.333 -11.833 91.166 -35.5 125.499
s-55 64.166 -94 89.499s-83.167 47.666 -132.5 66.999l-152 57.5c-52 19 -102.667 39.667 -152 62s-93.5 49 -132.5 80s-70.333 68 -94 111s-35.5 95.167 -35.5 156.5c0 62.667 14.667 117.667 44 165s68.333 87 117 119s103.834 56 165.501 72s125.167 24 190.5 24
c32 0 65 -2.16699 99 -6.5s67.667 -11.5 101 -21.5s65.5 -23.5 96.5 -40.5s59.5 -38.167 85.5 -63.5l-49 -93c-46 40 -98.5 68.333 -157.5 85s-118.167 25 -177.5 25c-45.333 0 -90.333 -4.66699 -135 -14s-84.834 -24.333 -120.501 -45s-64.667 -47 -87 -79
s-33.5 -70.333 -33.5 -115c0 -47.333 11.833 -87.666 35.5 -120.999s55 -62.833 94 -88.5s83.333 -48.667 133 -69l152.5 -61.5c52 -20.667 102.833 -42.667 152.5 -66s94 -51.166 133 -83.499s70.333 -70.166 94 -113.499s35.5 -95.333 35.5 -156
c0 -46.667 -7.5 -88.5 -22.5 -125.5s-35.833 -69.5 -62.5 -97.5s-57.667 -51.833 -93 -71.5s-73.666 -35.834 -114.999 -48.501s-84.166 -21.834 -128.499 -27.501s-88.5 -8.5 -132.5 -8.5c-86 0 -165.833 16 -239.5 48s-135.5 80.333 -185.5 145z" />
    <glyph glyph-name="T" unicode="T" horiz-adv-x="1174" 
d="M530 0v1342h-477v114h1088v-114h-476v-1342h-135z" />
    <glyph glyph-name="U" unicode="U" horiz-adv-x="1532" 
d="M1212 1456l126.001 0.00195312l-5 -908c-0.666992 -89.333 -12.834 -169.333 -36.501 -240s-59.167 -130.5 -106.5 -179.5s-106.5 -86.5 -177.5 -112.5s-153.833 -39 -248.5 -39c-91.333 0 -170.333 11.667 -237 35s-122.5 57.333 -167.5 102s-79.833 99 -104.5 163
s-40 137 -46 219c-0.666992 3.33301 -1 6.16602 -1 8.49902v8.5v19l6 924h125l-3 -913c0 -70.667 8.5 -133.834 25.5 -189.501s43.333 -103 79 -142s81.167 -68.833 136.5 -89.5s121 -31 197 -31c70.667 0 133 8.33301 187 25s99 42.667 135 78s63.167 81 81.5 137
s27.833 123.333 28.5 202z" />
    <glyph glyph-name="V" unicode="V" horiz-adv-x="1336" 
d="M679 100l72 201l433 1155h136l-570 -1456h-155l-559 1456h142l429 -1156z" />
    <glyph glyph-name="W" unicode="W" horiz-adv-x="2103" 
d="M1584 67l58 249l319 1140h127l-425 -1456h-174l-418 1325l-426 -1325h-182l-424 1456h142l311 -1119l72 -279l69 260l364 1138h150l357 -1123z" />
    <glyph glyph-name="X" unicode="X" horiz-adv-x="1304" 
d="M582 741l-499 715h166l419 -636l98 133l349 503h146l-513 -714l521 -742h-163l-443 664l-464 -664h-154z" />
    <glyph glyph-name="Y" unicode="Y" horiz-adv-x="1266" 
d="M707 588v-588h-133v582l-531 874h144l456 -765l463 765h138z" />
    <glyph glyph-name="Z" unicode="Z" horiz-adv-x="1222" 
d="M1143 0h-1067v70l907 1272h-870v114h1044v-66l-912 -1276h898v-114z" />
    <glyph glyph-name="bracketleft" unicode="[" horiz-adv-x="628" 
d="M537 -268h-317v1735h316v-88h-200v-1560h201v-87z" />
    <glyph glyph-name="backslash" unicode="\" horiz-adv-x="706" 
d="M654 -122l-696 1589h118l695 -1589h-117z" />
    <glyph glyph-name="bracketright" unicode="]" horiz-adv-x="628" 
d="M128 1467h300v-1735h-317v87h198v1560h-199z" />
    <glyph glyph-name="asciicircum" unicode="^" horiz-adv-x="1457" 
d="M217 569l479 879h70l488 -879h-108l-408 749h-7l-408 -749h-106z" />
    <glyph glyph-name="underscore" unicode="_" horiz-adv-x="998" 
d="M1004 -282h-991v93h991v-93z" />
    <glyph glyph-name="grave" unicode="`" horiz-adv-x="593" 
d="M48 1508h158l229 -292h-82z" />
    <glyph glyph-name="a" unicode="a" 
d="M596 1051c48 0 91.165 -5.16699 129.498 -15.5s73.333 -25 105 -44s60.667 -42.167 87 -69.5s51.5 -58.333 75.5 -93l5 197h120v-244v-782h-126l2 219c-9.33301 -27.333 -25.666 -55.166 -48.999 -83.499s-52.333 -54.333 -87 -78s-74.5 -43 -119.5 -58
s-93.5 -22.5 -145.5 -22.5c-84.667 0 -157.5 16.5 -218.5 49.5s-111.167 75.667 -150.5 128s-68.333 111 -87 176s-28 129.5 -28 193.5c0 66 10 130.667 30 194s50.333 119.666 91 168.999s91.334 89 152.001 119s132 45 214 45zM996.998 525
c-4 54 -13.1641 106.503 -27.4971 157.503s-36.5 96.5 -66.5 136.5s-69.167 72 -117.5 96s-108.5 36 -180.5 36c-67.333 0 -124.833 -13 -172.5 -39s-86.834 -59.833 -117.501 -101.5s-53 -88.167 -67 -139.5s-21 -102.333 -21 -153s5.33301 -102.167 16 -154.5
s30.167 -99.833 58.5 -142.5s67.666 -77.667 117.999 -105s115.166 -41 194.499 -41c53.333 0 103.333 8.66699 150 26s87.167 43.666 121.5 78.999s61.5 79.666 81.5 132.999s30 115.666 30 186.999v25z" />
    <glyph glyph-name="b" unicode="b" horiz-adv-x="1239" 
d="M293 0l-117.001 -0.000976562v1508h124v-692c20 39.333 44.333 73.666 73 102.999s60.5 53.833 95.5 73.5s72.5 34.334 112.5 44.001s81.333 14.5 124 14.5c77.333 0 143.5 -14.167 198.5 -42.5s100.167 -66.5 135.5 -114.5s61.333 -103.833 78 -167.5
s25 -130.5 25 -200.5c0 -75.333 -9.66699 -146.166 -29 -212.499s-48.166 -124.5 -86.499 -174.5s-86.5 -89.5 -144.5 -118.5s-125.333 -43.5 -202 -43.5c-166.667 0 -293.667 72 -381 216zM663.999 950.999c-68.667 0 -126.332 -12.665 -172.999 -37.998
s-84.334 -59.333 -113.001 -102s-49.167 -91.834 -61.5 -147.501s-18.5 -113.5 -18.5 -173.5c0 -59.333 7.83301 -114.333 23.5 -165s38.667 -94.5 69 -131.5s68 -66 113 -87s96.833 -31.5 155.5 -31.5c66 0 121.833 13.5 167.5 40.5s82.5 62.167 110.5 105.5
s48.333 92.166 61 146.499s19 108.833 19 163.5c0 58 -7 112.5 -21 163.5s-35.5 95.5 -64.5 133.5s-65.667 68 -110 90s-96.833 33 -157.5 33z" />
    <glyph glyph-name="c" unicode="c" horiz-adv-x="1046" 
d="M903 848c-28 34 -65.6641 59.6689 -112.997 77.002s-100.333 26 -159 26c-61.333 0 -116 -11.667 -164 -35s-88.833 -55 -122.5 -95s-59.334 -86.833 -77.001 -140.5s-26.5 -110.834 -26.5 -171.501s7.5 -117.5 22.5 -170.5s38.333 -99 70 -138s72 -69.667 121 -92
s107.5 -33.5 175.5 -33.5c124 0 224.667 33.333 302 100l30 -97c-44 -36 -95.333 -61.833 -154 -77.5s-123.334 -23.5 -194.001 -23.5c-83.333 0 -156.333 13.667 -219 41s-115 64.666 -157 111.999s-73.5 102.833 -94.5 166.5s-31.5 131.5 -31.5 203.5
c0 75.333 11.333 146.333 34 213s55.5 125 98.5 175s96 89.667 159 119s135.167 44 216.5 44c78 0 145.167 -11.167 201.5 -33.5s101.166 -53.5 134.499 -93.5z" />
    <glyph glyph-name="d" unicode="d" horiz-adv-x="1240" 
d="M957 1508h123.999v-1261c0 -44 0.166992 -85.167 0.5 -123.5s1.5 -79.5 3.5 -123.5h-123l-6 206c-45.333 -80 -100.666 -138.167 -165.999 -174.5s-140.333 -54.5 -225 -54.5c-78 0 -145.5 13.833 -202.5 41.5s-104 65.167 -141 112.5s-64.5 103 -82.5 167
s-27 132.667 -27 206c0 72.667 9.66699 142 29 208s48.5 124.167 87.5 174.5s87.5 90.333 145.5 120s125.667 44.5 203 44.5c88.667 0 165.5 -18.667 230.5 -56s114.833 -95.333 149.5 -174v687zM593.999 75c61.333 0 114.834 11.502 160.501 34.502s83.5 54.833 113.5 95.5
s52.333 89 67 145s22 117 22 183c0 64 -8.33301 121.667 -25 173s-40.334 95.166 -71.001 131.499s-67.834 64.333 -111.501 84s-92.834 29.5 -147.501 29.5c-63.333 0 -117.666 -12 -162.999 -36s-82.666 -56.333 -111.999 -97s-51 -87.834 -65 -141.501
s-21 -110.167 -21 -169.5c0 -56.667 6.16699 -111 18.5 -163s32.5 -98 60.5 -138s64.333 -71.833 109 -95.5s99.667 -35.5 165 -35.5z" />
    <glyph glyph-name="e" unicode="e" horiz-adv-x="1173" 
d="M268 593h687.001v2v-7c-2 54 -9.5 103.167 -22.5 147.5s-32.5 82.5 -58.5 114.5s-59.167 56.833 -99.5 74.5s-88.833 26.5 -145.5 26.5c-55.333 0 -104.333 -9.5 -147 -28.5s-79 -44.833 -109 -77.5s-53.833 -70.667 -71.5 -114s-28.834 -89.333 -33.501 -138zM1001 202
l35.9971 -96.001c-50 -46 -108.167 -79 -174.5 -99s-141.166 -30 -224.499 -30c-79.333 0 -150.166 13.167 -212.499 39.5s-115 63 -158 110s-75.833 103 -98.5 168s-34 136.167 -34 213.5c0 74 11.333 144 34 210s55.334 123.667 98.001 173s94.834 88.333 156.501 117
s131.5 43 209.5 43c77.333 0 144.5 -13 201.5 -39s104 -62.167 141 -108.5s64.5 -101.833 82.5 -166.5s27 -136 27 -214c0 -5.33301 -0.166992 -11.166 -0.5 -17.499s-0.5 -11.166 -0.5 -14.499h-818v-19c0 -59.333 8.83301 -113.333 26.5 -162
s43.167 -90.334 76.5 -125.001s73.666 -61.667 120.999 -81s101 -29 161 -29c74.667 0 141.667 11 201 33s109 53.333 149 94z" />
    <glyph glyph-name="f" unicode="f" horiz-adv-x="702" 
d="M399 0l-124.002 -0.000976562v944h-207v82h207v164c-1.33301 54 3.5 102.167 14.5 144.5s28.167 78.333 51.5 108s53.166 52.167 89.499 67.5s79.833 23 130.5 23c14.667 0 27.334 -0.5 38.001 -1.5s20.334 -2.16699 29.001 -3.5s16.834 -3.16602 24.501 -5.49902
s16.5 -4.83301 26.5 -7.5l-1 -96c-8 2.66699 -19.167 5 -33.5 7s-33.5 3 -57.5 3c-40 0 -72.667 -5.16699 -98 -15.5s-45 -25.833 -59 -46.5s-22.833 -46 -26.5 -76s-5.16699 -64.667 -4.5 -104v-161h255v-82h-255v-944z" />
    <glyph glyph-name="g" unicode="g" horiz-adv-x="1241" 
d="M962 1026l124 0.00195312v-244v-647c0 -50 -3 -97.333 -9 -142s-15.5 -88.334 -28.5 -131.001s-31.5 -82.167 -55.5 -118.5s-55.333 -68 -94 -95s-86 -48.167 -142 -63.5s-122.667 -23 -200 -23c-64.667 0 -126.834 6.16699 -186.501 18.5s-114.5 31.5 -164.5 57.5
l12 116c48.667 -28 101.167 -48.833 157.5 -62.5s113.833 -20.5 172.5 -20.5c130 0 229.833 29.167 299.5 87.5s106.167 149.833 109.5 274.5l5 218c-38 -84.667 -91.333 -147.667 -160 -189s-146.334 -62 -233.001 -62c-72 0 -136.333 12.333 -193 37
s-104.667 59.167 -144 103.5s-69.333 97.833 -90 160.5s-31 132 -31 208c0 74 9.83301 143.833 29.5 209.5s49.334 123.167 89.001 172.5s89 88.333 148 117s128.167 43 207.5 43c42.667 0 82.334 -5.5 119.001 -16.5s70.5 -26.333 101.5 -46s59.333 -43.334 85 -71.001
s48.5 -58.167 68.5 -91.5zM959 551.002c0 54.667 -8.16699 106.334 -24.5 155.001s-39.833 91.167 -70.5 127.5s-68 65 -112 86s-93.333 31.5 -148 31.5c-60 0 -112.667 -11.833 -158 -35.5s-83.166 -55.5 -113.499 -95.5s-53.166 -86.333 -68.499 -139
s-23 -107.667 -23 -165c0 -63.333 6.16699 -120.333 18.5 -171s32.666 -93.834 60.999 -129.501s65.5 -63.167 111.5 -82.5s102.667 -29 170 -29c44.667 0 84.5 5.83301 119.5 17.5s65.667 27.667 92 48s48.666 44.5 66.999 72.5s33.333 58.5 45 91.5s20.167 68 25.5 105
s8 74.5 8 112.5z" />
    <glyph glyph-name="h" unicode="h" horiz-adv-x="1217" 
d="M313 1508l-0.00195312 -683.002c44 78.667 96.833 136 158.5 172s136.167 54 223.5 54c66.667 0 122.334 -10.5 167.001 -31.5s80.667 -48.833 108 -83.5s47.5 -74 60.5 -118s21.167 -89 24.5 -135l2 -44v-639h-124v530c0 24.667 -0.333008 51.834 -1 81.501
s-1 44.834 -1 45.501c-4.66699 94.667 -30.167 167.334 -76.5 218.001s-115.5 76 -207.5 76c-55.333 0 -103.833 -9.33301 -145.5 -28s-76.5 -44.334 -104.5 -77.001s-49.167 -71.167 -63.5 -115.5s-21.166 -91.833 -20.499 -142.5v-588h-124v1508h124z" />
    <glyph glyph-name="i" unicode="i" horiz-adv-x="503" 
d="M315 1478v-124h-115v124h115zM193 1026h124v-1026h-124v1026z" />
    <glyph glyph-name="j" unicode="j" horiz-adv-x="503" 
d="M-82 -323c12 -1.33301 23.165 -2.83398 33.498 -4.50098s20.833 -2.5 31.5 -2.5c40.667 0 74.834 6.66699 102.501 20s50 34 67 62s29.333 63.5 37 106.5s11.834 94.167 12.501 153.5v1014h124v-921c0 -95.333 -3.33301 -171 -10 -227s-20.834 -109.167 -42.501 -159.5
s-52.667 -90.166 -93 -119.499s-94.166 -44 -161.499 -44c-32.667 0 -65.667 3.33301 -99 10zM316.998 1478v-124h-116v124h116z" />
    <glyph glyph-name="k" unicode="k" horiz-adv-x="1082" 
d="M1050 0h-166l-567 535v-535h-124v1508h124v-939l526 457h163l-547 -481z" />
    <glyph glyph-name="l" unicode="l" horiz-adv-x="503" 
d="M316 1508v-1508h-124v1508h124z" />
    <glyph glyph-name="m" unicode="m" horiz-adv-x="1901" 
d="M303 1026l5.00586 -197.001c15.333 38 35.666 71 60.999 99s54.166 51 86.499 69s67.166 31.5 104.499 40.5s75.666 13.5 114.999 13.5c42.667 0 82.667 -6 120 -18s70.666 -28.833 99.999 -50.5s53.833 -47.667 73.5 -78s33.5 -63.5 41.5 -99.5
c14.667 42 34.5 78.5 59.5 109.5s54.167 56.5 87.5 76.5s70.5 35 111.5 45s85.167 15 132.5 15c54 0 100.333 -7 139 -21s71.167 -32.333 97.5 -55s47.333 -48.667 63 -78s27.5 -59.333 35.5 -90s13.167 -60.667 15.5 -90s3.5 -55.333 3.5 -78v-639h-124v561
c0 62.667 -4 118.334 -12 167.001s-22.5 89.5 -43.5 122.5s-49.667 58 -86 75s-83.166 25.5 -140.499 25.5c-52 0 -97.833 -9.66699 -137.5 -29s-72.834 -45.333 -99.501 -78s-47.334 -71 -62.001 -115s-22 -90.333 -22 -139v-590h-124v638
c0 102.667 -24.333 180.5 -73 233.5s-119 79.5 -211 79.5c-52 0 -97.667 -9.16699 -137 -27.5s-72 -43.833 -98 -76.5s-46.167 -71 -60.5 -115s-21.5 -91.333 -21.5 -142v-590h-124v770c0 11.333 -0.166992 38.333 -0.5 81s-1.83301 101 -4.5 175h129z" />
    <glyph glyph-name="n" unicode="n" horiz-adv-x="1217" 
d="M311 0l-123.998 0.00195312v788l-9 238h130l6 -201c80.667 150.667 207.334 226 380.001 226c50 0 93.833 -6 131.5 -18s70 -28.5 97 -49.5s49.167 -45.5 66.5 -73.5s30.666 -58.167 39.999 -90.5s16 -66 20 -101s6 -69.833 6 -104.5c0.666992 -18 1 -51.5 1 -100.5
v-180.5v-333h-124v542c0 36 -0.166992 64.333 -0.5 85s-0.833008 34 -1.5 40c-3.33301 94 -28.5 164.833 -75.5 212.5s-111.5 71.5 -193.5 71.5c-37.333 0 -71.833 -4.83301 -103.5 -14.5s-60.334 -22.5 -86.001 -38.5s-48.167 -34.167 -67.5 -54.5s-36.333 -41.333 -51 -63
s-25.334 -42.834 -32.001 -63.501s-10 -39.334 -10 -56.001v-661z" />
    <glyph glyph-name="o" unicode="o" horiz-adv-x="1238" 
d="M633 1051c85.333 0 160 -13.835 224 -41.502s117.5 -65.667 160.5 -114s75.333 -105.166 97 -170.499s32.5 -135.333 32.5 -210c0 -73.333 -11.5 -142.5 -34.5 -207.5s-56.5 -122 -100.5 -171s-98.5 -87.833 -163.5 -116.5s-139.5 -43 -223.5 -43
c-83.333 0 -157 13.667 -221 41s-117.833 65 -161.5 113s-76.667 104.333 -99 169s-33.5 134.334 -33.5 209.001s11.5 145 34.5 211s56.667 123.5 101 172.5s99 87.667 164 116s139.5 42.5 223.5 42.5zM1017 510.998c0 59.333 -7.83301 115.667 -23.5 169
s-39.5 100 -71.5 140s-72.5 71.833 -121.5 95.5s-107.167 35.5 -174.5 35.5c-64 0 -120 -12.167 -168 -36.5s-88.333 -57 -121 -98s-57.167 -88 -73.5 -141s-24.5 -108.167 -24.5 -165.5s8.16699 -112.333 24.5 -165s41 -99 74 -139s74 -71.833 123 -95.5
s106.167 -35.5 171.5 -35.5c64 0 120.167 12 168.5 36s88.5 56 120.5 96s56 86.333 72 139s24 107.667 24 165z" />
    <glyph glyph-name="p" unicode="p" horiz-adv-x="1239" 
d="M299 -443h-124.002v1210c0 18.667 -0.333008 49.5 -1 92.5s-2.66699 98.5 -6 166.5h129l3 -208c40.667 82 96 141.333 166 178s149.667 55 239 55c74.667 0 139.5 -13.833 194.5 -41.5s100.667 -65.167 137 -112.5s63.5 -102.666 81.5 -165.999s27 -130.666 27 -201.999
c0 -72.667 -9.66699 -142.334 -29 -209.001s-48.166 -125.334 -86.499 -176.001s-86.666 -91.167 -144.999 -121.5s-126.5 -45.5 -204.5 -45.5c-167.333 0 -294.333 72.333 -381 217v-637zM297.998 494c0 -60 8.00098 -115.5 24.001 -166.5s39.333 -95.333 70 -133
s68.5 -67 113.5 -88s96.167 -31.5 153.5 -31.5c62.667 0 116.334 12.167 161.001 36.5s81.334 57 110.001 98s49.834 88.333 63.501 142s20.5 110.167 20.5 169.5c0 55.333 -6 108.833 -18 160.5s-31.833 97.5 -59.5 137.5s-63.834 72 -108.501 96s-99.334 36 -164.001 36
c-68.667 0 -126.334 -12.667 -173.001 -38s-84.334 -59 -113.001 -101s-49.167 -90.5 -61.5 -145.5s-18.5 -112.5 -18.5 -172.5z" />
    <glyph glyph-name="q" unicode="q" horiz-adv-x="1240" 
d="M956 210c-43.333 -80 -99.667 -138.834 -169 -176.501s-147.333 -56.5 -234 -56.5c-74 0 -138.5 13.5 -193.5 40.5s-100.833 64.333 -137.5 112s-64.167 103.667 -82.5 168s-27.5 133.5 -27.5 207.5c0 72.667 9.83301 142 29.5 208s49 124 88 174
s87.667 89.833 146 119.5s126.166 44.5 203.499 44.5c89.333 0 166.5 -18.167 231.5 -54.5s113.5 -88.833 145.5 -157.5l4 187h123c-1.33301 -56 -2.16602 -100.667 -2.49902 -134s-0.5 -55.666 -0.5 -66.999v-1267h-124v652zM958.999 543.999
c0 59.333 -7.83105 113.83 -23.498 163.497s-38.667 92.5 -69 128.5s-67.666 64.167 -111.999 84.5s-94.833 30.5 -151.5 30.5c-62 0 -115.667 -11.833 -161 -35.5s-82.833 -55.667 -112.5 -96s-51.834 -87.5 -66.501 -141.5s-22 -111.333 -22 -172
c0 -57.333 6.5 -112.166 19.5 -164.499s33.667 -98.166 62 -137.499s64.666 -70.666 108.999 -93.999s98.166 -35 161.499 -35c70.667 0 129.5 13.5 176.5 40.5s84.5 62.667 112.5 107s47.833 94.5 59.5 150.5s17.5 113 17.5 171z" />
    <glyph glyph-name="r" unicode="r" horiz-adv-x="737" 
d="M313 0h-123.997v788l-10 238h130l4 -248c10.667 48 26.167 89.167 46.5 123.5s43.5 62.5 69.5 84.5s55.333 38.167 88 48.5s68 15.833 106 16.5c19.333 0 36.166 -0.5 50.499 -1.5s26.166 -2.83301 35.499 -5.5l1 -114c-6 2.66699 -16.833 5.16699 -32.5 7.5
s-36.167 3.5 -61.5 3.5c-44 0 -84.333 -8.5 -121 -25.5s-68.167 -41.5 -94.5 -73.5s-47.333 -70.667 -63 -116s-23.834 -96 -24.501 -152v-574z" />
    <glyph glyph-name="s" unicode="s" horiz-adv-x="1007" 
d="M800 894c-29.333 18 -69.4971 32.0029 -120.497 42.0029s-106.833 15 -167.5 15c-35.333 0 -68 -3.83301 -98 -11.5s-55.833 -18.667 -77.5 -33s-38.5 -31.666 -50.5 -51.999s-18 -43.5 -18 -69.5c0 -33.333 4.83301 -59.666 14.5 -78.999s23.834 -35.166 42.501 -47.499
s41.667 -22.333 69 -30s58.666 -16 93.999 -25s74.333 -20.333 117 -34s88.667 -32.5 138 -56.5c18 -8.66699 36.667 -19.167 56 -31.5s37 -27.833 53 -46.5s29 -40.834 39 -66.501s15 -55.834 15 -90.501c0 -51.333 -11.833 -95.833 -35.5 -133.5s-54.834 -69 -93.501 -94
s-82.834 -43.5 -132.501 -55.5s-100.5 -18 -152.5 -18c-35.333 0 -70.166 1.83301 -104.499 5.5s-66.833 9.66699 -97.5 18s-58.834 19.166 -84.501 32.499s-47.167 29.666 -64.5 48.999l31 94c15.333 -17.333 34.666 -32.333 57.999 -45s48.833 -23.167 76.5 -31.5
s57 -14.5 88 -18.5s62.167 -6 93.5 -6c42 0 80.667 4 116 12s65.833 19.667 91.5 35s45.5 34.666 59.5 57.999s21 50.333 21 81c0 35.333 -8 64.666 -24 87.999s-38.333 43 -67 59s-62.334 29.833 -101.001 41.5l-127 36.5c-48.667 14.667 -92.5 30 -131.5 46
s-72.333 35 -100 57s-49 48.167 -64 78.5s-22.5 67.5 -22.5 111.5c0 46 10.5 86 31.5 120s48.833 62.333 83.5 85s73.834 39.5 117.501 50.5s88.5 16.5 134.5 16.5c66.667 0 128.167 -6 184.5 -18s102.5 -32 138.5 -60z" />
    <glyph glyph-name="t" unicode="t" horiz-adv-x="729" 
d="M271 944l-207 -0.000976562v82h207l1 288l123 34v-322h264v-82h-264v-641c0 -39.333 1 -73.666 3 -102.999s7.33301 -53.5 16 -72.5s23.834 -33.167 45.501 -42.5s52.5 -14 92.5 -14c48 0 84.667 6.33301 110 19v-85c-14.667 -10 -31.834 -17.167 -51.501 -21.5
s-42.167 -6.5 -67.5 -6.5c-55.333 0 -100.833 6 -136.5 18s-63.5 30.167 -83.5 54.5s-33.667 54.833 -41 91.5s-11 79.667 -11 129v674z" />
    <glyph glyph-name="u" unicode="u" horiz-adv-x="1217" 
d="M925 1026h124.002v-789c0 -10.667 0.333008 -35.667 1 -75s2 -93.333 4 -162h-129v203c-37.333 -78.667 -87.333 -136 -150 -172s-139 -54 -229 -54c-74 0 -134.833 12.667 -182.5 38s-85.334 58 -113.001 98s-46.834 84.833 -57.501 134.5s-16 99.167 -16 148.5v630h124
v-621c2 -54 7.33301 -101.5 16 -142.5s24.5 -75.333 47.5 -103s52.833 -48.667 89.5 -63s81.667 -21.5 135 -21.5c54 0 101.833 8.83301 143.5 26.5s76.667 42 105 73s50 67.5 65 109.5s22.5 87.667 22.5 137v12v593z" />
    <glyph glyph-name="v" unicode="v" horiz-adv-x="1063" 
d="M912 1026h130l-434 -1026h-137l-428 1026h132l285 -702l83 -213l75 187z" />
    <glyph glyph-name="w" unicode="w" horiz-adv-x="1695" 
d="M807 1026h135l252 -752l56 -193l54 190l245 755h129l-369 -1026h-129l-258 779l-50 165l-52 -168l-280 -776h-131l-364 1026h129l253 -754l56 -177l54 165z" />
    <glyph glyph-name="x" unicode="x" horiz-adv-x="1043" 
d="M844 0l-316 449l-334 -449h-137l397 514l-380 512h157l307 -443l316 443h129l-378 -508l394 -518h-155z" />
    <glyph glyph-name="y" unicode="y" horiz-adv-x="1069" 
d="M46 1026l131.001 0.000976562l363 -936l376 936h128l-463 -1110c-18.667 -44.667 -40.334 -86.834 -65.001 -126.501s-52.5 -75 -83.5 -106s-65.167 -57.167 -102.5 -78.5s-78 -36 -122 -44l-67 81c54 14 98.667 32 134 54s64.333 46 87 72s40.667 53 54 81
s25.333 54.667 36 80l25 61z" />
    <glyph glyph-name="z" unicode="z" horiz-adv-x="958" 
d="M78 67l643 855h-615v104h776v-65l-640 -858h657l-20 -103h-801v67z" />
    <glyph glyph-name="braceleft" unicode="{" horiz-adv-x="627" 
d="M273 1172c0 46.667 5.33398 88.1699 16.001 124.503s27.5 67.166 50.5 92.499s52.667 44.666 89 57.999s80.5 20 132.5 20l-3 -92c-31.333 -1.33301 -57.5 -4 -78.5 -8s-38 -12.5 -51 -25.5s-22.333 -32 -28 -57s-8.5 -59.167 -8.5 -102.5v-302
c0 -48.667 -6.33301 -90.167 -19 -124.5s-28 -62.666 -46 -84.999s-37 -39.333 -57 -51s-37.333 -18.834 -52 -21.501c31.333 -10.667 57.833 -25.667 79.5 -45s39.334 -41.333 53.001 -66s23.667 -51.334 30 -80.001s9.5 -57.334 9.5 -86.001l1 -343
c0 -1.33301 -0.166992 -2.66602 -0.5 -3.99902s-0.5 -2.66602 -0.5 -3.99902c0 -52 13.667 -89.5 41 -112.5s70.333 -34.5 129 -34.5l-1 -91c-40 0 -77.667 4.5 -113 13.5s-66 23.833 -92 44.5s-46.667 47.5 -62 80.5s-23 73.5 -23 121.5l4 273c0 34 -1.5 67 -4.5 99
s-10.167 61 -21.5 87s-28 47.667 -50 65s-52 28.666 -90 33.999l1 97c61.333 5.33301 104.666 26 129.999 62s37.666 89.667 36.999 161z" />
    <glyph glyph-name="bar" unicode="|" horiz-adv-x="500" 
d="M195 -510v2074h119v-2074h-119z" />
    <glyph glyph-name="braceright" unicode="}" horiz-adv-x="627" 
d="M86 1375l0.998047 92c44 -3.33301 83.833 -10.666 119.5 -21.999s66 -27.666 91 -48.999s44.333 -47.833 58 -79.5s20.5 -69.167 20.5 -112.5l-3 -298c0 -32.667 2 -63.667 6 -93s11.833 -55.666 23.5 -78.999s28.334 -42.5 50.001 -57.5s50.5 -24.167 86.5 -27.5l-2 -97
c-32 -2.66699 -58.667 -10.167 -80 -22.5s-38.5 -29.333 -51.5 -51s-22.167 -47.5 -27.5 -77.5s-8 -64 -8 -102l-1 -305c0 -38 -5.33301 -72.333 -16 -103s-25 -57 -43 -79s-39.167 -39.5 -63.5 -52.5s-50.5 -20.833 -78.5 -23.5c-16 -1.33301 -30.667 -2.5 -44 -3.5
s-25.666 -1.16699 -36.999 -0.5l1 91c32.667 0 60 2.66699 82 8s39.5 17.5 52.5 36.5s22.167 46.333 27.5 82s8 84.167 8 145.5c0 37.333 -0.833008 75.166 -2.5 113.499s-2.5 75.5 -2.5 111.5c0 48 6.33301 89.167 19 123.5s28 62.666 46 84.999s36.5 39.166 55.5 50.499
s35.167 17.666 48.5 18.999c-36 12.667 -64.667 29.667 -86 51s-37.833 44.833 -49.5 70.5s-19.334 52.334 -23.001 80.001s-5.5 54.167 -5.5 79.5l-1 313c0 27.333 -2.66699 52 -8 74s-14.666 40.833 -27.999 56.5s-31 28 -53 37s-49.333 14.167 -82 15.5z" />
    <glyph glyph-name="asciitilde" unicode="~" horiz-adv-x="1458" 
d="M500 693c24.667 0 51.332 -4.16797 79.999 -12.501s58 -18.666 88 -30.999s59.833 -25.666 89.5 -39.999l86 -40c27.667 -12.333 53.334 -22.666 77.001 -30.999s44.167 -12.5 61.5 -12.5c25.333 0 49 5 71 15s41.5 23.333 58.5 40s31.5 35.667 43.5 57
s20.667 43.333 26 66l80 -26c-8.66699 -37.333 -21.334 -71.333 -38.001 -102s-37 -57.167 -61 -79.5s-51.5 -39.666 -82.5 -51.999s-64.833 -18.5 -101.5 -18.5c-20 0 -42.5 4.16699 -67.5 12.5s-51.333 18.666 -79 30.999l-85.5 40
c-29.333 14.333 -58.333 27.666 -87 39.999s-56.667 22.666 -84 30.999s-52.666 12.5 -75.999 12.5c-29.333 0 -56 -5.16699 -80 -15.5s-45 -24 -63 -41s-33 -36.5 -45 -58.5s-20.667 -44.667 -26 -68l-73 33c7.33301 32.667 19 64.167 35 94.5s36 57 60 80
s52.167 41.333 84.5 55s68.5 20.5 108.5 20.5z" />
    <glyph glyph-name="nonbreakingspace" unicode="&#xa0;" horiz-adv-x="561" 
 />
    <glyph glyph-name="exclamdown" unicode="&#xa1;" horiz-adv-x="737" 
d="M458 1059h-178v175h188zM295 826h132v-1082h-132v1082z" />
    <glyph glyph-name="cent" unicode="&#xa2;" horiz-adv-x="1189" 
d="M697 1128l45.002 241.003h81l-49 -241c30 -4.66699 57.833 -12.334 83.5 -23.001s49 -23.667 70 -39s38.833 -33 53.5 -53s26 -41.333 34 -64l-47 -59c-16.667 36 -41.834 64.333 -75.501 85s-76.5 35.667 -128.5 45l-139 -848c26.667 -6 54.334 -9 83.001 -9
c28 0 55.833 3 83.5 9s53.667 15.333 78 28s46.166 28.167 65.499 46.5s34.666 40.166 45.999 65.499l59 -55c-10.667 -33.333 -26.5 -62.333 -47.5 -87s-45.833 -45 -74.5 -61s-60.167 -28 -94.5 -36s-70.166 -12 -107.499 -12c-33.333 0 -67 3 -101 9l-48 -235h-83l54 245
c-57.333 11.333 -108.333 32.166 -153 62.499s-82.167 67.5 -112.5 111.5s-53.5 93.833 -69.5 149.5s-24 114.5 -24 176.5c0 74 11.667 144.167 35 210.5s57.166 124.5 101.499 174.5s98.5 89.667 162.5 119s137 44 219 44zM552.002 191.003l136 832.998
c-56 -3.33301 -107.5 -15.666 -154.5 -36.999s-87.167 -50.5 -120.5 -87.5s-59.333 -81.333 -78 -133s-28 -109.5 -28 -173.5c0 -49.333 5.66699 -95.666 17 -138.999s27.5 -82.5 48.5 -117.5s46.667 -65 77 -90s64.5 -43.5 102.5 -55.5z" />
    <glyph glyph-name="sterling" unicode="&#xa3;" horiz-adv-x="1189" 
d="M1009 1275c-16 10.667 -34.1641 20.834 -54.4971 30.501s-41.666 18 -63.999 25s-45.333 12.667 -69 17s-46.834 6.5 -69.501 6.5c-58 0 -106.333 -8 -145 -24s-69.667 -39.833 -93 -71.5s-39.833 -70.5 -49.5 -116.5s-14.5 -99 -14.5 -159v-20l-2 -137h343v-111h-344
l-5 -206c-1.33301 -62 -3 -114 -5 -156s-6.5 -77.833 -13.5 -107.5s-17.333 -54.834 -31 -75.501s-32.834 -40.667 -57.501 -60h749v-110h-950l1 110c24 6 46.667 13.833 68 23.5s40 24.334 56 44.001s28.833 45.5 38.5 77.5s15.167 73.667 16.5 125l9 335h-190v111h189
c-0.666992 10.667 -1 21.167 -1 31.5v31.5c0 48.667 2 96.667 6 144s11.833 92.333 23.5 135s27.5 82.167 47.5 118.5s46 67.666 78 93.999s70.667 46.833 116 61.5s98.666 22 159.999 22c30.667 0 61.167 -2.83301 91.5 -8.5s59.166 -13.667 86.499 -24
s52.5 -22.5 75.5 -36.5s42.833 -29 59.5 -45z" />
    <glyph glyph-name="currency" unicode="&#xa4;" horiz-adv-x="1238" 
d="M566 1051c43.333 0 85.002 -5.66797 125.002 -17.001l102 267l42 -16l-103 -267c69.333 -31.333 121 -78.166 155 -140.499s51 -133.833 51 -214.5c0 -34 -3.5 -66.833 -10.5 -98.5s-17.167 -61.667 -30.5 -90s-29.833 -54.333 -49.5 -78s-42.167 -43.834 -67.5 -60.501
l151 -280l-35 -16l-149 276c-27.333 -13.333 -56.333 -23.666 -87 -30.999s-64 -11 -100 -11c-41.333 0 -78 4.33301 -110 13l-96 -247l-37 16l93 245c-36 14 -67.833 32.833 -95.5 56.5s-50.834 51 -69.501 82s-32.834 65 -42.501 102s-14.5 76.167 -14.5 117.5
c0 37.333 4 73.5 12 108.5s19.667 67.5 35 97.5s34.5 57 57.5 81s49.5 44 79.5 60l-151 279l40 16l150 -278c44 18.667 95.667 28 155 28zM844.002 659.999c0 42.667 -5.66602 83.332 -16.999 121.999s-28.5 72.667 -51.5 102s-52.333 52.5 -88 69.5
s-77.834 25.5 -126.501 25.5c-46 0 -86.5 -8.83301 -121.5 -26.5s-64.167 -41.167 -87.5 -70.5s-41 -63.166 -53 -101.499s-18 -78.5 -18 -120.5s6 -82 18 -120s29.833 -71.5 53.5 -100.5s53.167 -52 88.5 -69s76.666 -25.5 123.999 -25.5
c46.667 0 87.334 8.66699 122.001 26s63.667 40.5 87 69.5s40.833 62.5 52.5 100.5s17.5 77.667 17.5 119z" />
    <glyph glyph-name="yen" unicode="&#xa5;" horiz-adv-x="1189" 
d="M527 704l-473 732h151l275 -456l126 -215l116 193l295 478h136l-472 -732h390v-108h-407v-195h411v-109h-414v-292h-131v292h-405l20 109h390v195h-413v108h405z" />
    <glyph glyph-name="brokenbar" unicode="&#xa6;" horiz-adv-x="500" 
d="M198 763v801h116v-801h-116zM311 394v-904h-116v904h116z" />
    <glyph glyph-name="section" unicode="&#xa7;" horiz-adv-x="1097" 
d="M831 1366c-11.333 6 -25.165 11.4961 -41.498 16.4961s-34 9.16699 -53 12.5s-38.5 6 -58.5 8s-39 3 -57 3c-35.333 0 -68.166 -3 -98.499 -9s-56.5 -15.5 -78.5 -28.5s-39.333 -29.333 -52 -49s-19 -43.5 -19 -71.5c0 -23.333 4 -44 12 -62s21.333 -35.333 40 -52
s43.667 -33.667 75 -51s70.666 -36.666 117.999 -57.999c38.667 -16.667 75.667 -34 111 -52s66.333 -38 93 -60s48 -46.667 64 -74s24 -58.666 24 -93.999c0 -31.333 -5.83301 -60.166 -17.5 -86.499s-27.167 -50.333 -46.5 -72s-41.833 -41.334 -67.5 -59.001
s-52.5 -33.5 -80.5 -47.5c26.667 -12.667 51.5 -26.5 74.5 -41.5s42.833 -31.833 59.5 -50.5s29.667 -39.834 39 -63.501s14 -50.5 14 -80.5c0 -46.667 -10.667 -88.334 -32 -125.001s-50.333 -67.5 -87 -92.5s-79 -44.167 -127 -57.5s-98.333 -20 -151 -20
c-88.667 0 -173.334 16.333 -254.001 49l-2 111c41.333 -19.333 83.5 -33.166 126.5 -41.499s85.5 -12.5 127.5 -12.5c42.667 0 80.834 4.5 114.501 13.5s62 21.5 85 37.5s40.5 34.833 52.5 56.5s18 44.834 18 69.501c0 26 -5.83301 48.5 -17.5 67.5
s-28.834 36.5 -51.501 52.5s-50.334 31.167 -83.001 45.5s-70.334 29.833 -113.001 46.5l-29 11l9 -4c-40 17.333 -76.333 35.5 -109 54.5s-60.5 40 -83.5 63s-40.667 48.333 -53 76s-18.5 58.5 -18.5 92.5c0 32 5.83301 61 17.5 87s27.167 49.333 46.5 70s42 39 68 55
s53.333 30 82 42c-27.333 15.333 -51.833 31.333 -73.5 48s-40.167 34.834 -55.5 54.501s-27 41.667 -35 66s-12 51.5 -12 81.5c0 44.667 9.83301 83.834 29.5 117.501s46.334 61.667 80.001 84s73.167 39 118.5 50s94 16.5 146 16.5c20.667 0 40 -0.666992 58 -2
s35.5 -3.5 52.5 -6.5s33.833 -6.66699 50.5 -11s33.667 -9.5 51 -15.5v-108zM605.001 524.996c19.333 12 39.165 25.002 59.498 39.002s38.833 29.333 55.5 46s30.334 35 41.001 55s16 42 16 66c0 26 -5.66699 48.167 -17 66.5s-26.666 34.666 -45.999 48.999
s-42 27.333 -68 39l-84 36.5l-33 14c-6 2.66699 -10 4.66699 -12 6s-3.33301 2.33301 -4 3s-3.33398 2 -8.00098 4c-21.333 -10.667 -41.833 -22.334 -61.5 -35.001s-37.167 -27 -52.5 -43s-27.666 -33.833 -36.999 -53.5s-14 -41.5 -14 -65.5
c0 -29.333 6.33301 -54.5 19 -75.5s30.667 -40 54 -57s51.333 -32.833 84 -47.5z" />
    <glyph glyph-name="dieresis" unicode="&#xa8;" horiz-adv-x="743" 
d="M324 1293h-119v128h120zM700 1293h-123v128h123v-128z" />
    <glyph glyph-name="copyright" unicode="&#xa9;" horiz-adv-x="1829" 
d="M932 51c68.667 0 134.164 8 196.497 24s120.333 38.833 174 68.5s102.334 65.167 146.001 106.5s81 87.166 112 137.499s54.833 104.666 71.5 162.999s25 118.833 25 181.5c0 64 -8.5 125.333 -25.5 184s-41.167 113.334 -72.5 164.001s-69 96.667 -113 138
s-93.167 76.666 -147.5 105.999s-113 52 -176 68s-128.833 24 -197.5 24c-101.333 0 -196.166 -17.667 -284.499 -53s-165.166 -83.666 -230.499 -144.999s-116.833 -133.5 -154.5 -216.5s-56.5 -172.167 -56.5 -267.5c0 -96 18.667 -185.667 56 -269
s88.833 -155.666 154.5 -216.999s143.167 -109.5 232.5 -144.5s186 -52.5 290 -52.5zM929.997 -32c-74.667 0 -146.668 9.16699 -216.001 27.5s-134.166 44 -194.499 77s-115.333 72.833 -165 119.5s-92.334 98.334 -128.001 155.001s-63.167 117.5 -82.5 182.5
s-29 132.5 -29 202.5s9.83301 137.667 29.5 203s47.334 126.333 83.001 183s78.334 108.5 128.001 155.5s104.5 87.167 164.5 120.5s124.5 59.166 193.5 77.499s140.167 27.5 213.5 27.5c74.667 0 146.5 -9.16699 215.5 -27.5s133.5 -44.166 193.5 -77.499
s114.833 -73.333 164.5 -120s92.167 -98.334 127.5 -155.001s62.666 -117.667 81.999 -183s29 -133 29 -203s-9.66699 -137.5 -29 -202.5s-46.833 -125.833 -82.5 -182.5s-78.167 -108.334 -127.5 -155.001s-104 -86.667 -164 -120s-124.167 -59.166 -192.5 -77.499
s-139.5 -27.5 -213.5 -27.5zM1227 1068c-28.667 34 -66.6641 59.6689 -113.997 77.002s-100.333 26 -159 26c-61.333 0 -116 -11.667 -164 -35s-88.833 -55 -122.5 -95s-59.334 -86.833 -77.001 -140.5s-26.5 -110.834 -26.5 -171.501s7.5 -117.5 22.5 -170.5
s38.333 -99 70 -138s72 -69.667 121 -92s107.5 -33.5 175.5 -33.5c124 0 224.667 33.333 302 100l30 -97c-44 -36 -95.333 -61.833 -154 -77.5s-123.334 -23.5 -194.001 -23.5c-83.333 0 -156.333 13.667 -219 41s-115 64.666 -157 111.999s-73.5 102.833 -94.5 166.5
s-31.5 131.5 -31.5 203.5c0 75.333 11.333 146.333 34 213s55.5 125 98.5 175s96 89.667 159 119s135.167 44 216.5 44c78 0 145.167 -11.167 201.5 -33.5s101.166 -53.5 134.499 -93.5z" />
    <glyph glyph-name="ordfeminine" unicode="&#xaa;" horiz-adv-x="745" 
d="M159 1429c32.667 22.667 69.4932 38.9941 110.493 48.9941s85.5 15 133.5 15c36 0 69.833 -4.83301 101.5 -14.5s59 -23.667 82 -42s41.167 -41.166 54.5 -68.499s20 -58.666 20 -93.999c0 -5.33301 0.333008 -9 1 -11l-2 -330c0 -21.333 0.833008 -41.5 2.5 -60.5
s3.16699 -38.5 4.5 -58.5h-88l-2 127c-8.66699 -19.333 -21.167 -37.833 -37.5 -55.5s-35.666 -33.167 -57.999 -46.5s-47.166 -23.833 -74.499 -31.5s-56 -11.5 -86 -11.5c-33.333 0 -64.166 4.66699 -92.499 14s-53 22.833 -74 40.5s-37.5 38.834 -49.5 63.501
s-18 52.334 -18 83.001c0 122 77 189 231 201c46 4.66699 89.833 8.83398 131.5 12.501s83.834 6.83398 126.501 9.50098c0 40 -3.16699 72.833 -9.5 98.5s-16.666 46 -30.999 61s-33.166 25.333 -56.499 31s-51.666 8.5 -84.999 8.5c-38.667 0 -75.667 -3.33301 -111 -10
s-67.333 -19.667 -96 -39zM344.993 864.994c42.667 0 78.666 8.66797 107.999 26.001s53 38.5 71 63.5s31 51.333 39 79s12 52.167 12 73.5l-2 50c-26 -6 -53.833 -10.333 -83.5 -13s-59.167 -5.66699 -88.5 -9s-57.333 -7.5 -84 -12.5s-50.167 -12.5 -70.5 -22.5
s-36.666 -23.333 -48.999 -40s-18.5 -38.334 -18.5 -65.001c0 -44 15.333 -76.667 46 -98s70.667 -32 120 -32z" />
    <glyph glyph-name="guillemotleft" unicode="&#xab;" horiz-adv-x="1156" 
d="M744 911h110l-259 -370l252 -364h-107l-265 364zM445 911h106l-257 -370l252 -364h-107l-265 364z" />
    <glyph glyph-name="logicalnot" unicode="&#xac;" horiz-adv-x="1458" 
d="M1149 247v437h-930v105h1038v-542h-108z" />
    <glyph glyph-name="registered" unicode="&#xae;" horiz-adv-x="1829" 
d="M731 689l-0.000976562 -407h-100v916h258c142.667 0 247.834 -21.5 315.501 -64.5s101.5 -103.5 101.5 -181.5c0 -32 -5.83301 -62.833 -17.5 -92.5s-29.667 -56 -54 -79s-55.166 -41.667 -92.499 -56s-81.333 -22.5 -132 -24.5c16 -9.33301 32.833 -23.333 50.5 -42
s35.667 -40 54 -64s36.666 -50 54.999 -78l53 -84l49 -81l41.5 -69h-118l-123 212c-28 48.667 -55.667 89 -83 121s-56 56.667 -86 74h-172zM731.999 774l153.001 0.000976562c48 0 91.333 1.66699 130 5s71.5 10.666 98.5 21.999s47.833 27.5 62.5 48.5s22 49.167 22 84.5
c0 38 -5.83301 68.5 -17.5 91.5s-30.334 41 -56.001 54s-59.167 21.667 -100.5 26s-91.333 6.5 -150 6.5h-146zM932 51.001c68.667 0 134.164 8 196.497 24s120.333 38.833 174 68.5s102.334 65.167 146.001 106.5s81 87.166 112 137.499s54.833 104.666 71.5 162.999
s25 118.833 25 181.5c0 64 -8.5 125.333 -25.5 184s-41.167 113.334 -72.5 164.001s-69 96.667 -113 138s-93.167 76.666 -147.5 105.999s-113 52 -176 68s-128.833 24 -197.5 24c-101.333 0 -196.166 -17.667 -284.499 -53s-165.166 -83.666 -230.499 -144.999
s-116.833 -133.5 -154.5 -216.5s-56.5 -172.167 -56.5 -267.5c0 -96 18.667 -185.667 56 -269s88.833 -155.666 154.5 -216.999s143.167 -109.5 232.5 -144.5s186 -52.5 290 -52.5zM929.997 -31.999c-74.667 0 -146.668 9.16699 -216.001 27.5s-134.166 44 -194.499 77
s-115.333 72.833 -165 119.5s-92.334 98.334 -128.001 155.001s-63.167 117.5 -82.5 182.5s-29 132.5 -29 202.5s9.83301 137.667 29.5 203s47.334 126.333 83.001 183s78.334 108.5 128.001 155.5s104.5 87.167 164.5 120.5s124.5 59.166 193.5 77.499
s140.167 27.5 213.5 27.5c74.667 0 146.5 -9.16699 215.5 -27.5s133.5 -44.166 193.5 -77.499s114.833 -73.333 164.5 -120s92.167 -98.334 127.5 -155.001s62.666 -117.667 81.999 -183s29 -133 29 -203s-9.66699 -137.5 -29 -202.5s-46.833 -125.833 -82.5 -182.5
s-78.167 -108.334 -127.5 -155.001s-104 -86.667 -164 -120s-124.167 -59.166 -192.5 -77.499s-139.5 -27.5 -213.5 -27.5z" />
    <glyph glyph-name="uni00AF" unicode="&#xaf;" horiz-adv-x="850" 
d="M737 1430h-837l-8 99h837z" />
    <glyph glyph-name="degree" unicode="&#xb0;" horiz-adv-x="844" 
d="M209 1169c0 -30.667 5.33398 -58.8311 16.001 -84.498s25.667 -47.834 45 -66.501s42.166 -33.334 68.499 -44.001s55.5 -16 87.5 -16c30.667 0 59.5 5.5 86.5 16.5s50.5 26.333 70.5 46s35.667 42.667 47 69s17 54.5 17 84.5c0 30.667 -5.66699 59 -17 85
s-26.833 48.5 -46.5 67.5s-43 34 -70 45s-56.167 16.5 -87.5 16.5c-30 0 -58.167 -5.83301 -84.5 -17.5s-49.333 -27.5 -69 -47.5s-35.167 -43.167 -46.5 -69.5s-17 -54.5 -17 -84.5zM730.001 1176c0 -40 -8.16797 -77.667 -24.501 -113s-38.333 -66 -66 -92
s-60 -46.667 -97 -62s-76.167 -23 -117.5 -23c-40.667 0 -79.167 7.16699 -115.5 21.5s-68.166 34.166 -95.499 59.499s-49 55 -65 89s-24 71 -24 111s8 77.667 24 113s37.667 66.333 65 93s59.333 47.834 96 63.501s75.667 23.5 117 23.5c42 0 81.333 -7.5 118 -22.5
s68.667 -35.5 96 -61.5s49 -56.167 65 -90.5s24 -70.833 24 -109.5z" />
    <glyph glyph-name="plusminus" unicode="&#xb1;" horiz-adv-x="1458" 
d="M221 0v107h1036v-107h-1036zM685 724v386h103v-386h467v-107h-468v-385h-104v385h-466l20 107h448z" />
    <glyph glyph-name="twosuperior" unicode="&#xb2;" horiz-adv-x="1190" 
d="M303 628v87l96.5 88l98.5 90c32 30 62.5 60.167 91.5 90.5s54.333 60 76 89s39 57.5 52 85.5s19.5 55 19.5 81c0 40.667 -14.833 73.5 -44.5 98.5s-70.167 37.5 -121.5 37.5c-46 0 -85.667 -11.167 -119 -33.5s-59.333 -52.5 -78 -90.5l-59 55c20 48 53.333 85 100 111
s101.334 39 164.001 39c35.333 0 68.5 -5 99.5 -15s57.833 -24.333 80.5 -43s40.5 -41.334 53.5 -68.001s19.5 -56.334 19.5 -89.001c0 -42.667 -9.66699 -84.167 -29 -124.5s-45.833 -80.666 -79.5 -120.999s-73.334 -81.166 -119.001 -122.499l-146.5 -129l-40 -34h413
v-82h-528z" />
    <glyph glyph-name="threesuperior" unicode="&#xb3;" horiz-adv-x="1190" 
d="M261 1370c26.667 26 60.9961 46.9971 102.996 62.9971s86 24 132 24c34 0 66.667 -4.66699 98 -14s59.333 -23.166 84 -41.499s44.334 -41 59.001 -68s22 -57.833 22 -92.5c0 -46 -12.833 -85.833 -38.5 -119.5s-63.167 -57.167 -112.5 -70.5
c52 -14.667 93.667 -39 125 -73s47 -78 47 -132c0 -36.667 -7.66699 -69.667 -23 -99s-36.333 -54.166 -63 -74.499s-57.5 -36 -92.5 -47s-72.5 -16.5 -112.5 -16.5c-46 0 -88.833 7 -128.5 21s-73.5 35 -101.5 63l42 66c25.333 -23.333 53.5 -40.833 84.5 -52.5
s63.833 -17.5 98.5 -17.5c28 0 54.167 3.66699 78.5 11s45.833 17.833 64.5 31.5s33.334 30.334 44.001 50.001s16 42.167 16 67.5c0 29.333 -5.66699 54.166 -17 74.499s-27.666 36.833 -48.999 49.5s-47 21.834 -77 27.501s-63.333 8.5 -100 8.5
c-9.33301 0 -16.5 -0.166992 -21.5 -0.5s-9.16699 -0.5 -12.5 -0.5h-5l2 83h28c33.333 0 63.833 2.5 91.5 7.5s51.334 13.167 71.001 24.5s35 26.5 46 45.5s16.5 42.167 16.5 69.5c0 24 -4.16699 44.5 -12.5 61.5s-19.833 31 -34.5 42s-32.167 19.167 -52.5 24.5
s-42.833 8 -67.5 8c-38.667 0 -74 -6.5 -106 -19.5s-60.667 -30.167 -86 -51.5z" />
    <glyph glyph-name="acute" unicode="&#xb4;" horiz-adv-x="607" 
d="M543 1508h159l-285 -292h-80z" />
    <glyph glyph-name="mu1" unicode="&#xb5;" horiz-adv-x="1182" 
d="M879 208c-28 -78.667 -66.334 -136.829 -115.001 -174.496s-111 -56.5 -187 -56.5c-124.667 0 -208.334 52.333 -251.001 157l-14 -541h-133v1433h135l-1 -630c0 -0.666992 -0.166992 -2 -0.5 -4s-0.5 -3.33301 -0.5 -4c0 -44.667 6.83301 -84.834 20.5 -120.501
s32.5 -65.834 56.5 -90.501s52.667 -43.667 86 -57s70 -20 110 -20c44 0 84.167 7.83301 120.5 23.5s67.333 38.167 93 67.5s45.667 64.666 60 105.999s21.5 87.666 21.5 138.999v590h136v-767c0 -58.667 1.83301 -109.667 5.5 -153s11.834 -78.666 24.501 -105.999h-138
c-7.33301 17.333 -14.166 41.833 -20.499 73.5s-9.5 69.834 -9.5 114.501c0 3.33301 0.166992 7.16602 0.5 11.499s0.5 7.16602 0.5 8.49902z" />
    <glyph glyph-name="paragraph" unicode="&#xb6;" horiz-adv-x="1214" 
d="M470 -154l0.00292969 968.001h-10c-45.333 0 -88.333 8 -129 24s-76.334 38.667 -107.001 68s-54.834 64.666 -72.501 105.999s-26.5 87.333 -26.5 138c0 61.333 13.667 112.333 41 153s64.5 73.167 111.5 97.5s101.667 41.5 164 51.5s128.166 15 197.499 15h373v-90h-89
v-1531h-99v1531h-240v-1531h-114z" />
    <glyph glyph-name="glyph120" unicode="&#xb7;" horiz-adv-x="444" 
d="M184 523c-13.333 0 -26.3301 2.83301 -38.9971 8.5s-23.834 13.5 -33.501 23.5s-17.334 21.5 -23.001 34.5s-8.5 26.833 -8.5 41.5c0 28 8.5 51.333 25.5 70s37.833 28 62.5 28c14.667 0 28.5 -3 41.5 -9s24.5 -14 34.5 -24s18 -21.833 24 -35.5s9 -28.167 9 -43.5
c0 -26 -8.83301 -48.167 -26.5 -66.5s-39.834 -27.5 -66.501 -27.5z" />
    <glyph glyph-name="cedilla" unicode="&#xb8;" horiz-adv-x="529" 
d="M84 -342c22.667 -7.33301 45.3311 -12.667 67.998 -16s45 -5 67 -5c50.667 0 86.667 8.5 108 25.5s32 39.167 32 66.5c0 18.667 -3.5 34.167 -10.5 46.5s-17 22.333 -30 30s-28.667 13 -47 16s-38.833 4.5 -61.5 4.5h3.5c1.66699 0 2.5 -0.333008 2.5 -1
c-2.66699 0 -5 -0.333008 -7 -1l-30 -3l30 159h47l-18 -110c4.66699 0 9 0.166992 13 0.5s8.33301 0.5 13 0.5c27.333 0 52.833 -2.5 76.5 -7.5s44.334 -13 62.001 -24s31.5 -25.167 41.5 -42.5s15 -38.333 15 -63s-5.66699 -46.167 -17 -64.5s-27.166 -33.5 -47.499 -45.5
s-44.5 -21 -72.5 -27s-58.333 -9 -91 -9c-28 0 -54.333 1.66699 -79 5s-49 8 -73 14z" />
    <glyph glyph-name="onesuperior" unicode="&#xb9;" horiz-adv-x="1190" 
d="M261 1349c30 9.33301 58.165 21 84.498 35s51.833 28.667 76.5 44l83 12v-732h126v-80h-339v83h127l-1 626c-25.333 -15.333 -51.666 -29.5 -78.999 -42.5s-53.666 -24.5 -78.999 -34.5z" />
    <glyph glyph-name="ordmasculine" unicode="&#xba;" horiz-adv-x="824" 
d="M425 1492c56.667 0 106.666 -8.83301 149.999 -26.5s79.5 -42 108.5 -73s50.833 -67.833 65.5 -110.5s22 -88.667 22 -138c0 -48 -7.66699 -93.167 -23 -135.5s-37.666 -79.333 -66.999 -111s-65.5 -56.667 -108.5 -75s-92.5 -27.5 -148.5 -27.5
c-57.333 0 -107.833 9 -151.5 27s-80.167 42.667 -109.5 74s-51.333 68.5 -66 111.5s-22 89.167 -22 138.5c0 48.667 7.66699 94 23 136s38 78.5 68 109.5s66.667 55.5 110 73.5s93 27 149 27zM167.999 1146c0 -38 5.50098 -73.833 16.501 -107.5s27.167 -63 48.5 -88
s48.166 -44.833 80.499 -59.5s70.166 -22 113.499 -22c40.667 0 76.667 7.33301 108 22s57.833 34.5 79.5 59.5s38 53.833 49 86.5s16.5 67.334 16.5 104.001c0 38 -5.66699 73.833 -17 107.5s-28 63.167 -50 88.5s-49.167 45.333 -81.5 60s-69.5 22 -111.5 22
c-40.667 0 -76.667 -7.33301 -108 -22s-57.666 -34.334 -78.999 -59.001s-37.5 -53.667 -48.5 -87s-16.5 -68.333 -16.5 -105z" />
    <glyph glyph-name="guillemotright" unicode="&#xbb;" horiz-adv-x="1156" 
d="M722 177h-107l259 365l-254 369h109l267 -369zM312 177h-108l260 365l-255 369h109l266 -369z" />
    <glyph glyph-name="onequarter" unicode="&#xbc;" horiz-adv-x="1986" 
d="M261 1349c30 9.33301 58.165 21 84.498 35s51.833 28.667 76.5 44l83 12v-732h126v-80h-339v83h127l-1 626c-25.333 -15.333 -51.666 -29.5 -78.999 -42.5s-53.666 -24.5 -78.999 -34.5zM1475 1452l-915 -1452h-98l917 1452h96zM1470 61v196h-392v68l370 525h108v-522
h117l6 -71h-125v-41v-114v-41h-84zM1468 328l-1 437l-20.5 -33l-20.5 -33l-264 -371h306z" />
    <glyph glyph-name="onehalf" unicode="&#xbd;" horiz-adv-x="1858" 
d="M261 1349c30 9.33301 58.165 21 84.498 35s51.833 28.667 76.5 44l83 12v-732h126v-80h-339v83h127l-1 626c-25.333 -15.333 -51.666 -29.5 -78.999 -42.5s-53.666 -24.5 -78.999 -34.5zM1417 1452l-915 -1452h-98l917 1452h96zM1084 -1v87l96.5 88l98.5 90
c32 30 62.5 60.167 91.5 90.5s54.333 60 76 89s39 57.5 52 85.5s19.5 55 19.5 81c0 40.667 -14.833 73.5 -44.5 98.5s-70.167 37.5 -121.5 37.5c-46 0 -85.667 -11.167 -119 -33.5s-59.333 -52.5 -78 -90.5l-59 55c20 48 53.333 85 100 111s101.334 39 164.001 39
c35.333 0 68.5 -5 99.5 -15s57.833 -24.333 80.5 -43s40.5 -41.334 53.5 -68.001s19.5 -56.334 19.5 -89.001c0 -42.667 -9.66699 -84.167 -29 -124.5s-45.833 -80.666 -79.5 -120.999s-73.334 -81.166 -119.001 -122.499l-146.5 -129l-40 -34h413v-82h-528z" />
    <glyph glyph-name="threequarters" unicode="&#xbe;" horiz-adv-x="1921" 
d="M206 1370c26.667 26 60.9961 46.9971 102.996 62.9971s86 24 132 24c34 0 66.667 -4.66699 98 -14s59.333 -23.166 84 -41.499s44.334 -41 59.001 -68s22 -57.833 22 -92.5c0 -46 -12.833 -85.833 -38.5 -119.5s-63.167 -57.167 -112.5 -70.5
c52 -14.667 93.667 -39 125 -73s47 -78 47 -132c0 -36.667 -7.66699 -69.667 -23 -99s-36.333 -54.166 -63 -74.499s-57.5 -36 -92.5 -47s-72.5 -16.5 -112.5 -16.5c-46 0 -88.833 7 -128.5 21s-73.5 35 -101.5 63l42 66c25.333 -23.333 53.5 -40.833 84.5 -52.5
s63.833 -17.5 98.5 -17.5c28 0 54.167 3.66699 78.5 11s45.833 17.833 64.5 31.5s33.334 30.334 44.001 50.001s16 42.167 16 67.5c0 29.333 -5.66699 54.166 -17 74.499s-27.666 36.833 -48.999 49.5s-47 21.834 -77 27.501s-63.333 8.5 -100 8.5
c-9.33301 0 -16.5 -0.166992 -21.5 -0.5s-9.16699 -0.5 -12.5 -0.5h-5l2 83h28c33.333 0 63.833 2.5 91.5 7.5s51.334 13.167 71.001 24.5s35 26.5 46 45.5s16.5 42.167 16.5 69.5c0 24 -4.16699 44.5 -12.5 61.5s-19.833 31 -34.5 42s-32.167 19.167 -52.5 24.5
s-42.833 8 -67.5 8c-38.667 0 -74 -6.5 -106 -19.5s-60.667 -30.167 -86 -51.5zM1461 1452l-915 -1452h-98l917 1452h96zM1439 64.9971v196h-392v68l370 525h108v-522h117l6 -71h-125v-41v-114v-41h-84zM1437 331.997l-1 437l-20.5 -33l-20.5 -33l-264 -371h306z" />
    <glyph glyph-name="questiondown" unicode="&#xbf;" horiz-adv-x="1032" 
d="M717.023 941.023l13.998 -176.989c0.666016 -3.33301 0.999023 -7.99902 0.999023 -13.998c0 -35.998 -9.83301 -69.1631 -29.498 -99.4941s-44.1631 -59.6631 -73.4941 -87.9951c-29.3311 -28.3311 -61.3291 -56.4961 -95.9941 -84.4941
c-34.665 -27.999 -66.6631 -57.3311 -95.9941 -87.9961s-53.8301 -63.4961 -73.4961 -98.4941c-19.665 -34.9971 -29.498 -73.8281 -29.498 -116.492s7.83301 -79.1621 23.499 -109.494c15.665 -30.3311 36.1641 -55.1631 61.4961 -74.4951
s54.3301 -33.498 86.9951 -42.4971c32.6641 -8.99902 66.3281 -13.499 100.993 -13.499c31.3311 0 60.4961 2.16602 87.4951 6.49902c26.998 4.33301 52.4961 9.83301 76.4951 16.499s46.6641 13.666 67.9961 20.999l59.9961 19.999v-105.994
c-42.6641 -23.3311 -86.9951 -40.1631 -132.992 -50.4961s-89.9941 -15.499 -131.991 -15.499c-59.3301 0 -114.827 6.83301 -166.49 20.499s-96.6602 34.498 -134.991 62.4961c-38.3311 27.999 -68.4961 63.3301 -90.4951 105.994s-32.998 92.6611 -32.998 149.99
c0 63.9961 13.333 119.659 39.998 166.99c26.665 47.3301 60.6631 87.9941 101.994 121.992l27.999 23.499l24.998 21.498l104.493 95.9941c27.665 24.665 49.6641 47.3301 65.9961 67.9951c16.333 20.665 27.832 41.6641 34.498 62.9961s9.99902 47.9971 9.99902 79.9951
c0 19.332 -1 40.9971 -2.99902 64.9961l-5 68.9961h105.993zM557.031 1332h172.99v-178.989h-172.99v178.989z" />
    <glyph glyph-name="Agrave" unicode="&#xc0;" horiz-adv-x="1425" 
d="M177 0h-139l609 1456h151l603 -1456h-141l-179 426h-734zM382 520h665l-246 648l-79 221l-77 -221zM387 1938h158l229 -292h-82z" />
    <glyph glyph-name="Aacute" unicode="&#xc1;" horiz-adv-x="1425" 
d="M177 0h-139l609 1456h151l603 -1456h-141l-179 426h-734zM382 520h665l-246 648l-79 221l-77 -221zM722 1938h159l-285 -292h-80z" />
    <glyph glyph-name="Acircumflex" unicode="&#xc2;" horiz-adv-x="1425" 
d="M177 0h-139l609 1456h151l603 -1456h-141l-179 426h-734zM382 520h665l-246 648l-79 221l-77 -221zM455 1644l209 296h135l208 -296h-79l-199 240l-200 -240h-74z" />
    <glyph glyph-name="Atilde" unicode="&#xc3;" horiz-adv-x="1425" 
d="M177 0h-139l609 1456h151l603 -1456h-141l-179 426h-734zM382 520h665l-246 648l-79 221l-77 -221zM924 1881l62.002 0.000976562c-2.66699 -26 -8.5 -50.5 -17.5 -73.5s-21 -42.833 -36 -59.5s-32.833 -29.834 -53.5 -39.501s-43.667 -14.5 -69 -14.5
c-16 0 -34 3.66699 -54 11l-64 24.5c-22.667 9 -46.334 17.167 -71.001 24.5s-49 11 -73 11c-34 0 -61 -7.16699 -81 -21.5s-31.667 -36.5 -35 -66.5h-58c5.33301 54.667 23.666 98.667 54.999 132s73 50 125 50c20 0 40 -3.83301 60 -11.5s40.5 -16 61.5 -25
s42.833 -17.167 65.5 -24.5s46.334 -11 71.001 -11c30.667 0 56.167 7.66699 76.5 23s32.166 39 35.499 71z" />
    <glyph glyph-name="Adieresis" unicode="&#xc4;" horiz-adv-x="1425" 
d="M177 0h-139l609 1456h151l603 -1456h-141l-179 426h-734zM382 520h665l-246 648l-79 221l-77 -221zM602 1723h-119v128h120zM978 1723h-123v128h123v-128z" />
    <glyph glyph-name="Aring" unicode="&#xc5;" horiz-adv-x="1425" 
d="M177 0h-139l609 1456h151l603 -1456h-141l-179 426h-734zM382 520h665l-246 648l-79 221l-77 -221zM873 1801c0 18 -4 35.168 -12 51.501s-19 31 -33 44s-30.5 23.333 -49.5 31s-39.5 11.5 -61.5 11.5c-19.333 0 -37.833 -3.83301 -55.5 -11.5
s-33.334 -17.834 -47.001 -30.501s-24.667 -27.334 -33 -44.001s-12.5 -34 -12.5 -52c0 -41.333 13.833 -75.166 41.5 -101.499s64.834 -39.5 111.501 -39.5c20 0 39 3.83301 57 11.5s34 18 48 31s25.167 28 33.5 45s12.5 34.833 12.5 53.5zM529 1800
c0 25.333 5.16602 49.001 15.499 71.001s24.333 41 42 57s38.334 28.5 62.001 37.5s48.834 13.5 75.501 13.5s51.5 -4.5 74.5 -13.5s43.167 -21.5 60.5 -37.5s31 -34.833 41 -56.5s15 -45.167 15 -70.5c0 -24.667 -5.16699 -48 -15.5 -70s-24.333 -41.333 -42 -58
s-38.334 -29.834 -62.001 -39.501s-48.834 -14.5 -75.501 -14.5c-26 0 -50.667 4.5 -74 13.5s-43.666 21.5 -60.999 37.5s-31 35.167 -41 57.5s-15 46.5 -15 72.5z" />
    <glyph glyph-name="AE" unicode="&#xc6;" horiz-adv-x="2028" 
d="M943 1342l-475 -821h628l-63 821h-90zM866 1456h1023v-114h-737l41 -538h655v-113h-639l45 -577h659v-114h-769l-32 407h-702l-231 -407h-146z" />
    <glyph glyph-name="Ccedilla" unicode="&#xc7;" horiz-adv-x="1399" 
d="M1204 1266c-88 68 -206.667 102.004 -356 102.004c-99.333 0 -185.333 -18.833 -258 -56.5s-133 -87.334 -181 -149.001s-83.667 -131.834 -107 -210.501s-35 -159 -35 -241c0 -82.667 10.833 -161.334 32.5 -236.001s55.334 -140.5 101.001 -197.5
s103.667 -102.333 174 -136s154.166 -50.5 251.499 -50.5c88.667 0 169.167 10.167 241.5 30.5s132.166 51.5 179.499 93.5l42 -97c-57.333 -46 -127.666 -81 -210.999 -105s-178 -36 -284 -36c-108 0 -203.5 19.167 -286.5 57.5s-152.5 90.666 -208.5 156.999
s-98.5 143.833 -127.5 232.5s-43.5 183.667 -43.5 285c0 104 16 202.667 48 296s78.333 175.5 139 246.5s134.5 127.333 221.5 169s185.5 62.5 295.5 62.5c88 0 165.5 -11.167 232.5 -33.5s129.5 -58.5 187.5 -108.5zM631 -341.996
c22.667 -7.33301 45.3311 -12.667 67.998 -16s45 -5 67 -5c50.667 0 86.667 8.5 108 25.5s32 39.167 32 66.5c0 18.667 -3.5 34.167 -10.5 46.5s-17 22.333 -30 30s-28.667 13 -47 16s-38.833 4.5 -61.5 4.5h3.5c1.66699 0 2.5 -0.333008 2.5 -1
c-2.66699 0 -5 -0.333008 -7 -1l-30 -3l30 159h47l-18 -110c4.66699 0 9 0.166992 13 0.5s8.33301 0.5 13 0.5c27.333 0 52.833 -2.5 76.5 -7.5s44.334 -13 62.001 -24s31.5 -25.167 41.5 -42.5s15 -38.333 15 -63s-5.66699 -46.167 -17 -64.5s-27.166 -33.5 -47.499 -45.5
s-44.5 -21 -72.5 -27s-58.333 -9 -91 -9c-28 0 -54.333 1.66699 -79 5s-49 8 -73 14z" />
    <glyph glyph-name="Egrave" unicode="&#xc8;" horiz-adv-x="1218" 
d="M1096 114v-114h-870v1456h842v-114h-710v-538h670v-113h-672v-577h740zM283 1938h158l229 -292h-82z" />
    <glyph glyph-name="Eacute" unicode="&#xc9;" horiz-adv-x="1218" 
d="M618 1938h159l-285 -292h-80zM1096 114v-114h-870v1456h842v-114h-710v-538h670v-113h-672v-577h740z" />
    <glyph glyph-name="Ecircumflex" unicode="&#xca;" horiz-adv-x="1218" 
d="M356 1644l209 296h135l208 -296h-79l-199 240l-200 -240h-74zM1096 114v-114h-870v1456h842v-114h-710v-538h670v-113h-672v-577h740z" />
    <glyph glyph-name="Edieresis" unicode="&#xcb;" horiz-adv-x="1218" 
d="M502 1723h-119v128h120zM878 1723h-123v128h123v-128zM1096 114v-114h-870v1456h842v-114h-710v-538h670v-113h-672v-577h740z" />
    <glyph glyph-name="Igrave" unicode="&#xcc;" horiz-adv-x="591" 
d="M370 0h-135v1456h135v-1456zM-29 1938h158l229 -292h-82z" />
    <glyph glyph-name="Iacute" unicode="&#xcd;" horiz-adv-x="591" 
d="M370 0h-135v1456h135v-1456zM306 1938h159l-285 -292h-80z" />
    <glyph glyph-name="Icircumflex" unicode="&#xce;" horiz-adv-x="591" 
d="M370 0h-135v1456h135v-1456zM37 1644l209 296h135l208 -296h-79l-199 240l-200 -240h-74z" />
    <glyph glyph-name="Idieresis" unicode="&#xcf;" horiz-adv-x="591" 
d="M370 0h-135v1456h135v-1456zM183 1723h-119v128h120zM559 1723h-123v128h123v-128z" />
    <glyph glyph-name="Eth" unicode="&#xd0;" horiz-adv-x="1546" 
d="M13 688v102h200v666h302c91.333 0 177.333 -4.16699 258 -12.5s155 -22.833 223 -43.5s129 -48.667 183 -84s99.833 -80 137.5 -134s66.5 -118.667 86.5 -194s30 -163 30 -263c0 -110 -18.5 -209.667 -55.5 -299s-90.667 -165.5 -161 -228.5s-156 -111.667 -257 -146
s-215.5 -51.5 -343.5 -51.5h-405v688h-198zM341 114h293.999c112.667 0 210.334 15 293.001 45s151.167 71.667 205.5 125s94.833 117 121.5 191s40 155 40 243c0 116 -16.333 213.667 -49 293s-81.167 143.5 -145.5 192.5s-144 84.333 -239 106s-204.5 32.5 -328.5 32.5
h-189v-552h214v-102h-217v-574z" />
    <glyph glyph-name="Ntilde" unicode="&#xd1;" horiz-adv-x="1594" 
d="M343 1322v-1322h-131v1456h177l756 -1133l134 -221v340v1014h122v-1456h-180l-759 1132zM1058 1881l62.002 0.000976562c-2.66699 -26 -8.5 -50.5 -17.5 -73.5s-21 -42.833 -36 -59.5s-32.833 -29.834 -53.5 -39.501s-43.667 -14.5 -69 -14.5c-16 0 -34 3.66699 -54 11
l-64 24.5c-22.667 9 -46.334 17.167 -71.001 24.5s-49 11 -73 11c-34 0 -61 -7.16699 -81 -21.5s-31.667 -36.5 -35 -66.5h-58c5.33301 54.667 23.666 98.667 54.999 132s73 50 125 50c20 0 40 -3.83301 60 -11.5s40.5 -16 61.5 -25s42.833 -17.167 65.5 -24.5
s46.334 -11 71.001 -11c30.667 0 56.167 7.66699 76.5 23s32.166 39 35.499 71z" />
    <glyph glyph-name="Ograve" unicode="&#xd2;" horiz-adv-x="1663" 
d="M1551 730c0 -110 -16.1709 -211.163 -48.5039 -303.496s-79.166 -171.833 -140.499 -238.5s-136.166 -118.5 -224.499 -155.5s-188.166 -55.5 -299.499 -55.5c-109.333 0 -207.5 17.667 -294.5 53s-160.833 85.666 -221.5 150.999s-107.167 144.166 -139.5 236.499
s-48.5 195.5 -48.5 309.5c0 110 16.167 211.167 48.5 303.5s79.166 172 140.499 239s136.333 119.333 225 157s189.334 56.5 302.001 56.5c108 0 205.333 -17.833 292 -53.5s160.334 -86.334 221.001 -152.001s107.167 -144.834 139.5 -237.501s48.5 -196 48.5 -310z
M270.996 725.004c0 -88.667 12.167 -171.501 36.5 -248.501s60.5 -144 108.5 -201s107.333 -102 178 -135s152.334 -49.5 245.001 -49.5c94 0 176.5 16.333 247.5 49s130.167 77.834 177.5 135.501s82.833 125.667 106.5 204s35.5 163.5 35.5 255.5
c0 88.667 -11.667 171.667 -35 249s-58.5 144.5 -105.5 201.5s-105.833 101.833 -176.5 134.5s-153.334 49 -248.001 49c-93.333 0 -175.5 -17.667 -246.5 -53s-130.5 -82.5 -178.5 -141.5s-84.167 -127.5 -108.5 -205.5s-36.5 -159.333 -36.5 -244zM505.996 1938h158
l229 -292h-82z" />
    <glyph glyph-name="Oacute" unicode="&#xd3;" horiz-adv-x="1663" 
d="M841 1938h159l-285 -292h-80zM1551 730c0 -110 -16.1709 -211.163 -48.5039 -303.496s-79.166 -171.833 -140.499 -238.5s-136.166 -118.5 -224.499 -155.5s-188.166 -55.5 -299.499 -55.5c-109.333 0 -207.5 17.667 -294.5 53s-160.833 85.666 -221.5 150.999
s-107.167 144.166 -139.5 236.499s-48.5 195.5 -48.5 309.5c0 110 16.167 211.167 48.5 303.5s79.166 172 140.499 239s136.333 119.333 225 157s189.334 56.5 302.001 56.5c108 0 205.333 -17.833 292 -53.5s160.334 -86.334 221.001 -152.001
s107.167 -144.834 139.5 -237.501s48.5 -196 48.5 -310zM270.996 725.004c0 -88.667 12.167 -171.501 36.5 -248.501s60.5 -144 108.5 -201s107.333 -102 178 -135s152.334 -49.5 245.001 -49.5c94 0 176.5 16.333 247.5 49s130.167 77.834 177.5 135.501
s82.833 125.667 106.5 204s35.5 163.5 35.5 255.5c0 88.667 -11.667 171.667 -35 249s-58.5 144.5 -105.5 201.5s-105.833 101.833 -176.5 134.5s-153.334 49 -248.001 49c-93.333 0 -175.5 -17.667 -246.5 -53s-130.5 -82.5 -178.5 -141.5s-84.167 -127.5 -108.5 -205.5
s-36.5 -159.333 -36.5 -244z" />
    <glyph glyph-name="Ocircumflex" unicode="&#xd4;" horiz-adv-x="1663" 
d="M568 1644l209 296h135l208 -296h-79l-199 240l-200 -240h-74zM1551 730c0 -110 -16.1709 -211.163 -48.5039 -303.496s-79.166 -171.833 -140.499 -238.5s-136.166 -118.5 -224.499 -155.5s-188.166 -55.5 -299.499 -55.5c-109.333 0 -207.5 17.667 -294.5 53
s-160.833 85.666 -221.5 150.999s-107.167 144.166 -139.5 236.499s-48.5 195.5 -48.5 309.5c0 110 16.167 211.167 48.5 303.5s79.166 172 140.499 239s136.333 119.333 225 157s189.334 56.5 302.001 56.5c108 0 205.333 -17.833 292 -53.5
s160.334 -86.334 221.001 -152.001s107.167 -144.834 139.5 -237.501s48.5 -196 48.5 -310zM270.996 725.004c0 -88.667 12.167 -171.501 36.5 -248.501s60.5 -144 108.5 -201s107.333 -102 178 -135s152.334 -49.5 245.001 -49.5c94 0 176.5 16.333 247.5 49
s130.167 77.834 177.5 135.501s82.833 125.667 106.5 204s35.5 163.5 35.5 255.5c0 88.667 -11.667 171.667 -35 249s-58.5 144.5 -105.5 201.5s-105.833 101.833 -176.5 134.5s-153.334 49 -248.001 49c-93.333 0 -175.5 -17.667 -246.5 -53s-130.5 -82.5 -178.5 -141.5
s-84.167 -127.5 -108.5 -205.5s-36.5 -159.333 -36.5 -244z" />
    <glyph glyph-name="Otilde" unicode="&#xd5;" horiz-adv-x="1663" 
d="M1551 730c0 -110 -16.1709 -211.163 -48.5039 -303.496s-79.166 -171.833 -140.499 -238.5s-136.166 -118.5 -224.499 -155.5s-188.166 -55.5 -299.499 -55.5c-109.333 0 -207.5 17.667 -294.5 53s-160.833 85.666 -221.5 150.999s-107.167 144.166 -139.5 236.499
s-48.5 195.5 -48.5 309.5c0 110 16.167 211.167 48.5 303.5s79.166 172 140.499 239s136.333 119.333 225 157s189.334 56.5 302.001 56.5c108 0 205.333 -17.833 292 -53.5s160.334 -86.334 221.001 -152.001s107.167 -144.834 139.5 -237.501s48.5 -196 48.5 -310z
M270.996 725.004c0 -88.667 12.167 -171.501 36.5 -248.501s60.5 -144 108.5 -201s107.333 -102 178 -135s152.334 -49.5 245.001 -49.5c94 0 176.5 16.333 247.5 49s130.167 77.834 177.5 135.501s82.833 125.667 106.5 204s35.5 163.5 35.5 255.5
c0 88.667 -11.667 171.667 -35 249s-58.5 144.5 -105.5 201.5s-105.833 101.833 -176.5 134.5s-153.334 49 -248.001 49c-93.333 0 -175.5 -17.667 -246.5 -53s-130.5 -82.5 -178.5 -141.5s-84.167 -127.5 -108.5 -205.5s-36.5 -159.333 -36.5 -244zM1043 1881
l62.002 0.000976562c-2.66699 -26 -8.5 -50.5 -17.5 -73.5s-21 -42.833 -36 -59.5s-32.833 -29.834 -53.5 -39.501s-43.667 -14.5 -69 -14.5c-16 0 -34 3.66699 -54 11l-64 24.5c-22.667 9 -46.334 17.167 -71.001 24.5s-49 11 -73 11c-34 0 -61 -7.16699 -81 -21.5
s-31.667 -36.5 -35 -66.5h-58c5.33301 54.667 23.666 98.667 54.999 132s73 50 125 50c20 0 40 -3.83301 60 -11.5s40.5 -16 61.5 -25s42.833 -17.167 65.5 -24.5s46.334 -11 71.001 -11c30.667 0 56.167 7.66699 76.5 23s32.166 39 35.499 71z" />
    <glyph glyph-name="Odieresis" unicode="&#xd6;" horiz-adv-x="1663" 
d="M677 1723h-119v128h120zM1053 1723h-123v128h123v-128zM1551 730c0 -110 -16.1709 -211.163 -48.5039 -303.496s-79.166 -171.833 -140.499 -238.5s-136.166 -118.5 -224.499 -155.5s-188.166 -55.5 -299.499 -55.5c-109.333 0 -207.5 17.667 -294.5 53
s-160.833 85.666 -221.5 150.999s-107.167 144.166 -139.5 236.499s-48.5 195.5 -48.5 309.5c0 110 16.167 211.167 48.5 303.5s79.166 172 140.499 239s136.333 119.333 225 157s189.334 56.5 302.001 56.5c108 0 205.333 -17.833 292 -53.5
s160.334 -86.334 221.001 -152.001s107.167 -144.834 139.5 -237.501s48.5 -196 48.5 -310zM270.996 725.004c0 -88.667 12.167 -171.501 36.5 -248.501s60.5 -144 108.5 -201s107.333 -102 178 -135s152.334 -49.5 245.001 -49.5c94 0 176.5 16.333 247.5 49
s130.167 77.834 177.5 135.501s82.833 125.667 106.5 204s35.5 163.5 35.5 255.5c0 88.667 -11.667 171.667 -35 249s-58.5 144.5 -105.5 201.5s-105.833 101.833 -176.5 134.5s-153.334 49 -248.001 49c-93.333 0 -175.5 -17.667 -246.5 -53s-130.5 -82.5 -178.5 -141.5
s-84.167 -127.5 -108.5 -205.5s-36.5 -159.333 -36.5 -244z" />
    <glyph glyph-name="multiply" unicode="&#xd7;" horiz-adv-x="1458" 
d="M1047 911l80 -74l-312 -283l353 -282l-65 -72l-362 287l-316 -287l-78 72l309 282l-355 283l68 74l362 -289zM1169 272h-1l3 3zM345 272h2h-2z" />
    <glyph glyph-name="Oslash" unicode="&#xd8;" horiz-adv-x="1663" 
d="M1551 730c0 -110 -16.1699 -211.167 -48.5029 -303.5s-79.166 -171.833 -140.499 -238.5s-136.166 -118.5 -224.499 -155.5s-188.166 -55.5 -299.499 -55.5c-72.667 0 -141 8 -205 24l-49 -127h-116l63 163c-128 56.667 -226.167 143.834 -294.5 261.501
s-102.5 260.5 -102.5 428.5c0 110 16.167 211.167 48.5 303.5s79.166 172 140.499 239s136.333 119.333 225 157s189.334 56.5 302.001 56.5c82 0 156.333 -10.333 223 -31l44 113h121l-60 -154c120 -60 212.167 -147.833 276.5 -263.5s96.5 -254.834 96.5 -417.501z
M270.997 725c0 -64 6.33203 -125 18.999 -183s31.834 -111.5 57.501 -160.5s57.5 -93 95.5 -132s82 -71.833 132 -98.5l455 1190c-55.333 18.667 -118.333 28 -189 28c-93.333 0 -175.5 -17.667 -246.5 -53s-130.5 -82.5 -178.5 -141.5s-84.167 -127.5 -108.5 -205.5
s-36.5 -159.333 -36.5 -244zM838.996 91c94 0 176.5 16.332 247.5 48.999s130.167 77.834 177.5 135.501s82.833 125.667 106.5 204s35.5 163.5 35.5 255.5c0 124.667 -22.167 235 -66.5 331s-113.166 172 -206.499 228l-457 -1183c51.333 -13.333 105.666 -20 162.999 -20z
" />
    <glyph glyph-name="Ugrave" unicode="&#xd9;" horiz-adv-x="1532" 
d="M1212 1456l126.001 0.00195312l-5 -908c-0.666992 -89.333 -12.834 -169.333 -36.501 -240s-59.167 -130.5 -106.5 -179.5s-106.5 -86.5 -177.5 -112.5s-153.833 -39 -248.5 -39c-91.333 0 -170.333 11.667 -237 35s-122.5 57.333 -167.5 102s-79.833 99 -104.5 163
s-40 137 -46 219c-0.666992 3.33301 -1 6.16602 -1 8.49902v8.5v19l6 924h125l-3 -913c0 -70.667 8.5 -133.834 25.5 -189.501s43.333 -103 79 -142s81.167 -68.833 136.5 -89.5s121 -31 197 -31c70.667 0 133 8.33301 187 25s99 42.667 135 78s63.167 81 81.5 137
s27.833 123.333 28.5 202zM440.001 1938h158l229 -292h-82z" />
    <glyph glyph-name="Uacute" unicode="&#xda;" horiz-adv-x="1532" 
d="M775 1938h159l-285 -292h-80zM1212 1456l126.001 0.00195312l-5 -908c-0.666992 -89.333 -12.834 -169.333 -36.501 -240s-59.167 -130.5 -106.5 -179.5s-106.5 -86.5 -177.5 -112.5s-153.833 -39 -248.5 -39c-91.333 0 -170.333 11.667 -237 35
s-122.5 57.333 -167.5 102s-79.833 99 -104.5 163s-40 137 -46 219c-0.666992 3.33301 -1 6.16602 -1 8.49902v8.5v19l6 924h125l-3 -913c0 -70.667 8.5 -133.834 25.5 -189.501s43.333 -103 79 -142s81.167 -68.833 136.5 -89.5s121 -31 197 -31
c70.667 0 133 8.33301 187 25s99 42.667 135 78s63.167 81 81.5 137s27.833 123.333 28.5 202z" />
    <glyph glyph-name="Ucircumflex" unicode="&#xdb;" horiz-adv-x="1532" 
d="M490 1644l209 296h135l208 -296h-79l-199 240l-200 -240h-74zM1212 1456l126.001 0.00195312l-5 -908c-0.666992 -89.333 -12.834 -169.333 -36.501 -240s-59.167 -130.5 -106.5 -179.5s-106.5 -86.5 -177.5 -112.5s-153.833 -39 -248.5 -39
c-91.333 0 -170.333 11.667 -237 35s-122.5 57.333 -167.5 102s-79.833 99 -104.5 163s-40 137 -46 219c-0.666992 3.33301 -1 6.16602 -1 8.49902v8.5v19l6 924h125l-3 -913c0 -70.667 8.5 -133.834 25.5 -189.501s43.333 -103 79 -142s81.167 -68.833 136.5 -89.5
s121 -31 197 -31c70.667 0 133 8.33301 187 25s99 42.667 135 78s63.167 81 81.5 137s27.833 123.333 28.5 202z" />
    <glyph glyph-name="Udieresis" unicode="&#xdc;" horiz-adv-x="1532" 
d="M612 1723h-119v128h120zM988 1723h-123v128h123v-128zM1212 1456l126.001 0.00195312l-5 -908c-0.666992 -89.333 -12.834 -169.333 -36.501 -240s-59.167 -130.5 -106.5 -179.5s-106.5 -86.5 -177.5 -112.5s-153.833 -39 -248.5 -39c-91.333 0 -170.333 11.667 -237 35
s-122.5 57.333 -167.5 102s-79.833 99 -104.5 163s-40 137 -46 219c-0.666992 3.33301 -1 6.16602 -1 8.49902v8.5v19l6 924h125l-3 -913c0 -70.667 8.5 -133.834 25.5 -189.501s43.333 -103 79 -142s81.167 -68.833 136.5 -89.5s121 -31 197 -31
c70.667 0 133 8.33301 187 25s99 42.667 135 78s63.167 81 81.5 137s27.833 123.333 28.5 202z" />
    <glyph glyph-name="Yacute" unicode="&#xdd;" horiz-adv-x="1266" 
d="M707 588v-588h-133v582l-531 874h144l456 -765l463 765h138zM638 1938h159l-285 -292h-80z" />
    <glyph glyph-name="Thorn" unicode="&#xde;" horiz-adv-x="1274" 
d="M350 0l-126.001 0.000976562v1456h131v-219h198c56 0 110.833 -2.5 164.5 -7.5s104.5 -13.667 152.5 -26s92 -28.833 132 -49.5s74.5 -46.834 103.5 -78.501s51.667 -69.334 68 -113.001s24.5 -94.5 24.5 -152.5c0 -75.333 -16.167 -139.833 -48.5 -193.5
s-75.666 -97.667 -129.999 -132s-117.5 -59.666 -189.5 -75.999s-147.667 -24.5 -227 -24.5h-246zM356.999 498.001h290.999c60 0 115.333 6 166 18s94.334 30.667 131.001 56s65.334 57.333 86.001 96s31 84.667 31 138c0 63.333 -11.333 115.5 -34 156.5
s-54.334 73.333 -95.001 97s-89.667 40.167 -147 49.5s-120.333 14 -189 14h-240v-625z" />
    <glyph glyph-name="germandbls" unicode="&#xdf;" horiz-adv-x="1257" 
d="M316 0l-120.999 -0.00488281l-1 1093c0 66 9.33301 125.833 28 179.5s46 99.5 82 137.5s80 67.5 132 88.5s111.667 31.5 179 31.5c62 0 117.667 -8.16699 167 -24.5s91 -38.833 125 -67.5s60 -62 78 -100s27 -78.667 27 -122c0 -31.333 -5.16699 -61.333 -15.5 -90
s-23.833 -55.667 -40.5 -81s-35.667 -48.666 -57 -69.999s-42.833 -40.666 -64.5 -57.999s-42.5 -32.5 -62.5 -45.5s-37.333 -23.167 -52 -30.5c-7.33301 -5.33301 -12.166 -9.33301 -14.499 -12s-3.5 -6.66699 -3.5 -12c0 -7.33301 1.83301 -12.666 5.5 -15.999
s9.83398 -6.66602 18.501 -9.99902l106 -44.5c36 -15.667 70.833 -33.334 104.5 -53.001s65.167 -41.334 94.5 -65.001s55 -50 77 -79s39.333 -61.167 52 -96.5s19 -74.333 19 -117c0 -54 -10.5 -103 -31.5 -147s-48.667 -81.667 -83 -113s-73.833 -55.666 -118.5 -72.999
s-91 -26 -139 -26c-56.667 0 -111 11.667 -163 35s-98 61.333 -138 114l43 67c34 -40 73.667 -69.667 119 -89s91.333 -29 138 -29c30.667 0 60 5.16699 88 15.5s52.5 25.666 73.5 45.999s37.667 45.333 50 75s18.5 64.167 18.5 103.5c0 58.667 -12.667 110 -38 154
s-58.333 83.333 -99 118s-86.5 66.667 -137.5 96l-154.5 89l18 123c31.333 14.667 61.666 32.667 90.999 54s55.166 45.5 77.499 72.5s40.333 56.833 54 89.5s20.5 67.334 20.5 104.001c0 34 -6 64.5 -18 91.5s-29.167 49.667 -51.5 68s-49.333 32.5 -81 42.5
s-66.834 15 -105.501 15c-55.333 0 -101.833 -8.83301 -139.5 -26.5s-68.167 -42.667 -91.5 -75s-40.333 -71.666 -51 -117.999s-16 -98.166 -16 -155.499z" />
    <glyph glyph-name="agrave" unicode="&#xe0;" 
d="M596 1051c48 0 91.165 -5.16699 129.498 -15.5s73.333 -25 105 -44s60.667 -42.167 87 -69.5s51.5 -58.333 75.5 -93l5 197h120v-244v-782h-126l2 219c-9.33301 -27.333 -25.666 -55.166 -48.999 -83.499s-52.333 -54.333 -87 -78s-74.5 -43 -119.5 -58
s-93.5 -22.5 -145.5 -22.5c-84.667 0 -157.5 16.5 -218.5 49.5s-111.167 75.667 -150.5 128s-68.333 111 -87 176s-28 129.5 -28 193.5c0 66 10 130.667 30 194s50.333 119.666 91 168.999s91.334 89 152.001 119s132 45 214 45zM996.998 525
c-4 54 -13.1641 106.503 -27.4971 157.503s-36.5 96.5 -66.5 136.5s-69.167 72 -117.5 96s-108.5 36 -180.5 36c-67.333 0 -124.833 -13 -172.5 -39s-86.834 -59.833 -117.501 -101.5s-53 -88.167 -67 -139.5s-21 -102.333 -21 -153s5.33301 -102.167 16 -154.5
s30.167 -99.833 58.5 -142.5s67.666 -77.667 117.999 -105s115.166 -41 194.499 -41c53.333 0 103.333 8.66699 150 26s87.167 43.666 121.5 78.999s61.5 79.666 81.5 132.999s30 115.666 30 186.999v25zM330.001 1508h158l229 -292h-82z" />
    <glyph glyph-name="aacute" unicode="&#xe1;" 
d="M596 1051c48 0 91.165 -5.16699 129.498 -15.5s73.333 -25 105 -44s60.667 -42.167 87 -69.5s51.5 -58.333 75.5 -93l5 197h120v-244v-782h-126l2 219c-9.33301 -27.333 -25.666 -55.166 -48.999 -83.499s-52.333 -54.333 -87 -78s-74.5 -43 -119.5 -58
s-93.5 -22.5 -145.5 -22.5c-84.667 0 -157.5 16.5 -218.5 49.5s-111.167 75.667 -150.5 128s-68.333 111 -87 176s-28 129.5 -28 193.5c0 66 10 130.667 30 194s50.333 119.666 91 168.999s91.334 89 152.001 119s132 45 214 45zM996.998 525
c-4 54 -13.1641 106.503 -27.4971 157.503s-36.5 96.5 -66.5 136.5s-69.167 72 -117.5 96s-108.5 36 -180.5 36c-67.333 0 -124.833 -13 -172.5 -39s-86.834 -59.833 -117.501 -101.5s-53 -88.167 -67 -139.5s-21 -102.333 -21 -153s5.33301 -102.167 16 -154.5
s30.167 -99.833 58.5 -142.5s67.666 -77.667 117.999 -105s115.166 -41 194.499 -41c53.333 0 103.333 8.66699 150 26s87.167 43.666 121.5 78.999s61.5 79.666 81.5 132.999s30 115.666 30 186.999v25zM664.001 1508h159l-285 -292h-80z" />
    <glyph glyph-name="acircumflex" unicode="&#xe2;" 
d="M596 1051c48 0 91.165 -5.16699 129.498 -15.5s73.333 -25 105 -44s60.667 -42.167 87 -69.5s51.5 -58.333 75.5 -93l5 197h120v-244v-782h-126l2 219c-9.33301 -27.333 -25.666 -55.166 -48.999 -83.499s-52.333 -54.333 -87 -78s-74.5 -43 -119.5 -58
s-93.5 -22.5 -145.5 -22.5c-84.667 0 -157.5 16.5 -218.5 49.5s-111.167 75.667 -150.5 128s-68.333 111 -87 176s-28 129.5 -28 193.5c0 66 10 130.667 30 194s50.333 119.666 91 168.999s91.334 89 152.001 119s132 45 214 45zM996.998 525
c-4 54 -13.1641 106.503 -27.4971 157.503s-36.5 96.5 -66.5 136.5s-69.167 72 -117.5 96s-108.5 36 -180.5 36c-67.333 0 -124.833 -13 -172.5 -39s-86.834 -59.833 -117.501 -101.5s-53 -88.167 -67 -139.5s-21 -102.333 -21 -153s5.33301 -102.167 16 -154.5
s30.167 -99.833 58.5 -142.5s67.666 -77.667 117.999 -105s115.166 -41 194.499 -41c53.333 0 103.333 8.66699 150 26s87.167 43.666 121.5 78.999s61.5 79.666 81.5 132.999s30 115.666 30 186.999v25zM328.001 1214l209 296h135l208 -296h-79l-199 240l-200 -240h-74z
" />
    <glyph glyph-name="atilde" unicode="&#xe3;" 
d="M596 1051c48 0 91.165 -5.16699 129.498 -15.5s73.333 -25 105 -44s60.667 -42.167 87 -69.5s51.5 -58.333 75.5 -93l5 197h120v-244v-782h-126l2 219c-9.33301 -27.333 -25.666 -55.166 -48.999 -83.499s-52.333 -54.333 -87 -78s-74.5 -43 -119.5 -58
s-93.5 -22.5 -145.5 -22.5c-84.667 0 -157.5 16.5 -218.5 49.5s-111.167 75.667 -150.5 128s-68.333 111 -87 176s-28 129.5 -28 193.5c0 66 10 130.667 30 194s50.333 119.666 91 168.999s91.334 89 152.001 119s132 45 214 45zM996.998 525
c-4 54 -13.1641 106.503 -27.4971 157.503s-36.5 96.5 -66.5 136.5s-69.167 72 -117.5 96s-108.5 36 -180.5 36c-67.333 0 -124.833 -13 -172.5 -39s-86.834 -59.833 -117.501 -101.5s-53 -88.167 -67 -139.5s-21 -102.333 -21 -153s5.33301 -102.167 16 -154.5
s30.167 -99.833 58.5 -142.5s67.666 -77.667 117.999 -105s115.166 -41 194.499 -41c53.333 0 103.333 8.66699 150 26s87.167 43.666 121.5 78.999s61.5 79.666 81.5 132.999s30 115.666 30 186.999v25zM867.001 1451l62.002 0.000976562
c-2.66699 -26 -8.5 -50.5 -17.5 -73.5s-21 -42.833 -36 -59.5s-32.833 -29.834 -53.5 -39.501s-43.667 -14.5 -69 -14.5c-16 0 -34 3.66699 -54 11l-64 24.5c-22.667 9 -46.334 17.167 -71.001 24.5s-49 11 -73 11c-34 0 -61 -7.16699 -81 -21.5s-31.667 -36.5 -35 -66.5
h-58c5.33301 54.667 23.666 98.667 54.999 132s73 50 125 50c20 0 40 -3.83301 60 -11.5s40.5 -16 61.5 -25s42.833 -17.167 65.5 -24.5s46.334 -11 71.001 -11c30.667 0 56.167 7.66699 76.5 23s32.166 39 35.499 71z" />
    <glyph glyph-name="adieresis" unicode="&#xe4;" 
d="M596 1051c48 0 91.165 -5.16699 129.498 -15.5s73.333 -25 105 -44s60.667 -42.167 87 -69.5s51.5 -58.333 75.5 -93l5 197h120v-244v-782h-126l2 219c-9.33301 -27.333 -25.666 -55.166 -48.999 -83.499s-52.333 -54.333 -87 -78s-74.5 -43 -119.5 -58
s-93.5 -22.5 -145.5 -22.5c-84.667 0 -157.5 16.5 -218.5 49.5s-111.167 75.667 -150.5 128s-68.333 111 -87 176s-28 129.5 -28 193.5c0 66 10 130.667 30 194s50.333 119.666 91 168.999s91.334 89 152.001 119s132 45 214 45zM996.998 525
c-4 54 -13.1641 106.503 -27.4971 157.503s-36.5 96.5 -66.5 136.5s-69.167 72 -117.5 96s-108.5 36 -180.5 36c-67.333 0 -124.833 -13 -172.5 -39s-86.834 -59.833 -117.501 -101.5s-53 -88.167 -67 -139.5s-21 -102.333 -21 -153s5.33301 -102.167 16 -154.5
s30.167 -99.833 58.5 -142.5s67.666 -77.667 117.999 -105s115.166 -41 194.499 -41c53.333 0 103.333 8.66699 150 26s87.167 43.666 121.5 78.999s61.5 79.666 81.5 132.999s30 115.666 30 186.999v25zM501.001 1293h-119v128h120zM877.001 1293h-123v128h123v-128z" />
    <glyph glyph-name="aring" unicode="&#xe5;" 
d="M596 1051c48 0 91.165 -5.16699 129.498 -15.5s73.333 -25 105 -44s60.667 -42.167 87 -69.5s51.5 -58.333 75.5 -93l5 197h120v-244v-782h-126l2 219c-9.33301 -27.333 -25.666 -55.166 -48.999 -83.499s-52.333 -54.333 -87 -78s-74.5 -43 -119.5 -58
s-93.5 -22.5 -145.5 -22.5c-84.667 0 -157.5 16.5 -218.5 49.5s-111.167 75.667 -150.5 128s-68.333 111 -87 176s-28 129.5 -28 193.5c0 66 10 130.667 30 194s50.333 119.666 91 168.999s91.334 89 152.001 119s132 45 214 45zM996.998 525
c-4 54 -13.1641 106.503 -27.4971 157.503s-36.5 96.5 -66.5 136.5s-69.167 72 -117.5 96s-108.5 36 -180.5 36c-67.333 0 -124.833 -13 -172.5 -39s-86.834 -59.833 -117.501 -101.5s-53 -88.167 -67 -139.5s-21 -102.333 -21 -153s5.33301 -102.167 16 -154.5
s30.167 -99.833 58.5 -142.5s67.666 -77.667 117.999 -105s115.166 -41 194.499 -41c53.333 0 103.333 8.66699 150 26s87.167 43.666 121.5 78.999s61.5 79.666 81.5 132.999s30 115.666 30 186.999v25zM784.001 1371c0 18 -4 35.168 -12 51.501s-19 31 -33 44
s-30.5 23.333 -49.5 31s-39.5 11.5 -61.5 11.5c-19.333 0 -37.833 -3.83301 -55.5 -11.5s-33.334 -17.834 -47.001 -30.501s-24.667 -27.334 -33 -44.001s-12.5 -34 -12.5 -52c0 -41.333 13.833 -75.166 41.5 -101.499s64.834 -39.5 111.501 -39.5c20 0 39 3.83301 57 11.5
s34 18 48 31s25.167 28 33.5 45s12.5 34.833 12.5 53.5zM440.001 1370c0 25.333 5.16602 49.001 15.499 71.001s24.333 41 42 57s38.334 28.5 62.001 37.5s48.834 13.5 75.501 13.5s51.5 -4.5 74.5 -13.5s43.167 -21.5 60.5 -37.5s31 -34.833 41 -56.5s15 -45.167 15 -70.5
c0 -24.667 -5.16699 -48 -15.5 -70s-24.333 -41.333 -42 -58s-38.334 -29.834 -62.001 -39.501s-48.834 -14.5 -75.501 -14.5c-26 0 -50.667 4.5 -74 13.5s-43.666 21.5 -60.999 37.5s-31 35.167 -41 57.5s-15 46.5 -15 72.5z" />
    <glyph glyph-name="ae" unicode="&#xe6;" horiz-adv-x="1807" 
d="M226 810l-68.999 68.0029c36.667 62.667 89.667 107.5 159 134.5s149.666 40.5 240.999 40.5c40 -1.33301 78.167 -7.33301 114.5 -18s68.666 -26.5 96.999 -47.5s52.166 -47.333 71.499 -79s32.333 -68.834 39 -111.501h5c18.667 44.667 42.334 83 71.001 115
s60.167 58.5 94.5 79.5s71.166 36.5 110.499 46.5s79.333 15 120 15c74.667 0 139.5 -13.5 194.5 -40.5s100.667 -63.667 137 -110s63.333 -100.333 81 -162s26.5 -126.834 26.5 -195.501v-24c0 -9.33301 -0.333008 -17 -1 -23h-780v-42c0 -52 6.16699 -100.833 18.5 -146.5
s32 -85.667 59 -120s61.667 -61.333 104 -81s93.5 -29.5 153.5 -29.5c74.667 0 141.167 15.833 199.5 47.5s105.5 75.5 141.5 131.5l68 -68c-42.667 -70.667 -99.5 -124.167 -170.5 -160.5s-154.833 -54.5 -251.5 -54.5c-44 0 -86.167 5.66699 -126.5 17
s-77.166 27.833 -110.499 49.5s-63 48.667 -89 81s-47 69.5 -63 111.5c-19.333 -50 -43 -91.333 -71 -124s-60 -59 -96 -79s-76 -34.333 -120 -43s-91.667 -14 -143 -16c-51.333 0 -98.166 7 -140.499 21s-78.833 34.333 -109.5 61s-54.5 58.834 -71.5 96.501
s-25.5 80.5 -25.5 128.5s8.33301 90.333 25 127s40.667 67.667 72 93s69.666 45.166 114.999 59.499s96.666 23.5 153.999 27.5c59.333 6 116.833 10.167 172.5 12.5s114.834 4.16602 177.501 5.49902l-1 14c-0.666992 4 -1 8.66699 -1 14s-0.333008 11 -1 17
c-3.33301 42.667 -9.66602 82.5 -18.999 119.5s-23.833 69 -43.5 96s-45.667 48.167 -78 63.5s-72.833 23 -121.5 23c-34.667 0 -68 -2.5 -100 -7.5s-61.833 -13.167 -89.5 -24.5s-52.5 -25.833 -74.5 -43.5s-40.333 -39.5 -55 -65.5zM809.001 498.003l-177.002 -3.00098
c-53.333 -1.33301 -104.833 -4.5 -154.5 -9.5s-93.5 -15 -131.5 -30s-68.5 -36.167 -91.5 -63.5s-34.5 -63.666 -34.5 -108.999c0 -37.333 7.16699 -69.166 21.5 -95.499s33.333 -47.833 57 -64.5s51 -28.834 82 -36.501s63.167 -11.5 96.5 -11.5
c63.333 0 116.333 11 159 33s76.834 51.5 102.501 88.5s43.834 79.5 54.501 127.5s16 98 16 150v24zM935.999 600.002l661.999 0.00292969c0 3.33301 0.166992 7.16602 0.5 11.499s0.5 8.16602 0.5 11.499c0 42.667 -6.83301 83.667 -20.5 123s-34 74.166 -61 104.499
s-60.333 54.666 -100 72.999s-85.5 27.5 -137.5 27.5c-54 0 -102.333 -9.5 -145 -28.5s-78.667 -44.667 -108 -77s-51.666 -69.666 -66.999 -111.999s-23.333 -86.833 -24 -133.5z" />
    <glyph glyph-name="ccedilla" unicode="&#xe7;" horiz-adv-x="1046" 
d="M903 848c-28 34 -65.6641 59.6689 -112.997 77.002s-100.333 26 -159 26c-61.333 0 -116 -11.667 -164 -35s-88.833 -55 -122.5 -95s-59.334 -86.833 -77.001 -140.5s-26.5 -110.834 -26.5 -171.501s7.5 -117.5 22.5 -170.5s38.333 -99 70 -138s72 -69.667 121 -92
s107.5 -33.5 175.5 -33.5c124 0 224.667 33.333 302 100l30 -97c-44 -36 -95.333 -61.833 -154 -77.5s-123.334 -23.5 -194.001 -23.5c-83.333 0 -156.333 13.667 -219 41s-115 64.666 -157 111.999s-73.5 102.833 -94.5 166.5s-31.5 131.5 -31.5 203.5
c0 75.333 11.333 146.333 34 213s55.5 125 98.5 175s96 89.667 159 119s135.167 44 216.5 44c78 0 145.167 -11.167 201.5 -33.5s101.166 -53.5 134.499 -93.5zM452.003 -341.998c22.667 -7.33301 45.3311 -12.667 67.998 -16s45 -5 67 -5c50.667 0 86.667 8.5 108 25.5
s32 39.167 32 66.5c0 18.667 -3.5 34.167 -10.5 46.5s-17 22.333 -30 30s-28.667 13 -47 16s-38.833 4.5 -61.5 4.5h3.5c1.66699 0 2.5 -0.333008 2.5 -1c-2.66699 0 -5 -0.333008 -7 -1l-30 -3l30 159h47l-18 -110c4.66699 0 9 0.166992 13 0.5s8.33301 0.5 13 0.5
c27.333 0 52.833 -2.5 76.5 -7.5s44.334 -13 62.001 -24s31.5 -25.167 41.5 -42.5s15 -38.333 15 -63s-5.66699 -46.167 -17 -64.5s-27.166 -33.5 -47.499 -45.5s-44.5 -21 -72.5 -27s-58.333 -9 -91 -9c-28 0 -54.333 1.66699 -79 5s-49 8 -73 14z" />
    <glyph glyph-name="egrave" unicode="&#xe8;" horiz-adv-x="1173" 
d="M268 593h687.001v2v-7c-2 54 -9.5 103.167 -22.5 147.5s-32.5 82.5 -58.5 114.5s-59.167 56.833 -99.5 74.5s-88.833 26.5 -145.5 26.5c-55.333 0 -104.333 -9.5 -147 -28.5s-79 -44.833 -109 -77.5s-53.833 -70.667 -71.5 -114s-28.834 -89.333 -33.501 -138zM1001 202
l35.9971 -96.001c-50 -46 -108.167 -79 -174.5 -99s-141.166 -30 -224.499 -30c-79.333 0 -150.166 13.167 -212.499 39.5s-115 63 -158 110s-75.833 103 -98.5 168s-34 136.167 -34 213.5c0 74 11.333 144 34 210s55.334 123.667 98.001 173s94.834 88.333 156.501 117
s131.5 43 209.5 43c77.333 0 144.5 -13 201.5 -39s104 -62.167 141 -108.5s64.5 -101.833 82.5 -166.5s27 -136 27 -214c0 -5.33301 -0.166992 -11.166 -0.5 -17.499s-0.5 -11.166 -0.5 -14.499h-818v-19c0 -59.333 8.83301 -113.333 26.5 -162
s43.167 -90.334 76.5 -125.001s73.666 -61.667 120.999 -81s101 -29 161 -29c74.667 0 141.667 11 201 33s109 53.333 149 94zM294.998 1508h158l229 -292h-82z" />
    <glyph glyph-name="eacute" unicode="&#xe9;" horiz-adv-x="1173" 
d="M629 1508h159l-285 -292h-80zM268 593h687.001v2v-7c-2 54 -9.5 103.167 -22.5 147.5s-32.5 82.5 -58.5 114.5s-59.167 56.833 -99.5 74.5s-88.833 26.5 -145.5 26.5c-55.333 0 -104.333 -9.5 -147 -28.5s-79 -44.833 -109 -77.5s-53.833 -70.667 -71.5 -114
s-28.834 -89.333 -33.501 -138zM1001 202l35.9971 -96.001c-50 -46 -108.167 -79 -174.5 -99s-141.166 -30 -224.499 -30c-79.333 0 -150.166 13.167 -212.499 39.5s-115 63 -158 110s-75.833 103 -98.5 168s-34 136.167 -34 213.5c0 74 11.333 144 34 210
s55.334 123.667 98.001 173s94.834 88.333 156.501 117s131.5 43 209.5 43c77.333 0 144.5 -13 201.5 -39s104 -62.167 141 -108.5s64.5 -101.833 82.5 -166.5s27 -136 27 -214c0 -5.33301 -0.166992 -11.166 -0.5 -17.499s-0.5 -11.166 -0.5 -14.499h-818v-19
c0 -59.333 8.83301 -113.333 26.5 -162s43.167 -90.334 76.5 -125.001s73.666 -61.667 120.999 -81s101 -29 161 -29c74.667 0 141.667 11 201 33s109 53.333 149 94z" />
    <glyph glyph-name="ecircumflex" unicode="&#xea;" horiz-adv-x="1173" 
d="M357 1214l209 296h135l208 -296h-79l-199 240l-200 -240h-74zM268 593h687.001v2v-7c-2 54 -9.5 103.167 -22.5 147.5s-32.5 82.5 -58.5 114.5s-59.167 56.833 -99.5 74.5s-88.833 26.5 -145.5 26.5c-55.333 0 -104.333 -9.5 -147 -28.5s-79 -44.833 -109 -77.5
s-53.833 -70.667 -71.5 -114s-28.834 -89.333 -33.501 -138zM1001 202l35.9971 -96.001c-50 -46 -108.167 -79 -174.5 -99s-141.166 -30 -224.499 -30c-79.333 0 -150.166 13.167 -212.499 39.5s-115 63 -158 110s-75.833 103 -98.5 168s-34 136.167 -34 213.5
c0 74 11.333 144 34 210s55.334 123.667 98.001 173s94.834 88.333 156.501 117s131.5 43 209.5 43c77.333 0 144.5 -13 201.5 -39s104 -62.167 141 -108.5s64.5 -101.833 82.5 -166.5s27 -136 27 -214c0 -5.33301 -0.166992 -11.166 -0.5 -17.499
s-0.5 -11.166 -0.5 -14.499h-818v-19c0 -59.333 8.83301 -113.333 26.5 -162s43.167 -90.334 76.5 -125.001s73.666 -61.667 120.999 -81s101 -29 161 -29c74.667 0 141.667 11 201 33s109 53.333 149 94z" />
    <glyph glyph-name="edieresis" unicode="&#xeb;" horiz-adv-x="1173" 
d="M502 1293h-119v128h120zM878 1293h-123v128h123v-128zM268 593h687.001v2v-7c-2 54 -9.5 103.167 -22.5 147.5s-32.5 82.5 -58.5 114.5s-59.167 56.833 -99.5 74.5s-88.833 26.5 -145.5 26.5c-55.333 0 -104.333 -9.5 -147 -28.5s-79 -44.833 -109 -77.5
s-53.833 -70.667 -71.5 -114s-28.834 -89.333 -33.501 -138zM1001 202l35.9971 -96.001c-50 -46 -108.167 -79 -174.5 -99s-141.166 -30 -224.499 -30c-79.333 0 -150.166 13.167 -212.499 39.5s-115 63 -158 110s-75.833 103 -98.5 168s-34 136.167 -34 213.5
c0 74 11.333 144 34 210s55.334 123.667 98.001 173s94.834 88.333 156.501 117s131.5 43 209.5 43c77.333 0 144.5 -13 201.5 -39s104 -62.167 141 -108.5s64.5 -101.833 82.5 -166.5s27 -136 27 -214c0 -5.33301 -0.166992 -11.166 -0.5 -17.499
s-0.5 -11.166 -0.5 -14.499h-818v-19c0 -59.333 8.83301 -113.333 26.5 -162s43.167 -90.334 76.5 -125.001s73.666 -61.667 120.999 -81s101 -29 161 -29c74.667 0 141.667 11 201 33s109 53.333 149 94z" />
    <glyph glyph-name="igrave" unicode="&#xec;" horiz-adv-x="503" 
d="M317 0h-124v1026h124v-1026zM-39 1508h158l229 -292h-82z" />
    <glyph glyph-name="iacute" unicode="&#xed;" horiz-adv-x="503" 
d="M295 1508h159l-285 -292h-80zM317 0h-124v1026h124v-1026z" />
    <glyph glyph-name="icircumflex" unicode="&#xee;" horiz-adv-x="503" 
d="M-41 1214l209 296h135l208 -296h-79l-199 240l-200 -240h-74zM317 0h-124v1026h124v-1026z" />
    <glyph glyph-name="idieresis" unicode="&#xef;" horiz-adv-x="503" 
d="M132 1293h-119v128h120zM508 1293h-123v128h123v-128zM317 0h-124v1026h124v-1026z" />
    <glyph glyph-name="eth" unicode="&#xf0;" horiz-adv-x="1190" 
d="M1071 1026c6 -24 11.5 -47.499 16.5 -70.499s9.16699 -46.667 12.5 -71s5.83301 -50 7.5 -77s2.5 -55.833 2.5 -86.5c0 -113.333 -12.333 -215.833 -37 -307.5s-60.5 -169.834 -107.5 -234.501s-105 -114.5 -174 -149.5s-147.833 -52.5 -236.5 -52.5
c-70.667 0 -134.5 11.333 -191.5 34s-105.667 54 -146 94s-71.333 87.333 -93 142s-32.5 113.667 -32.5 177c0 66.667 11.5 128.667 34.5 186s55.167 107 96.5 149s91.166 75 149.499 99s123.166 36 194.499 36c101.333 0 186.333 -21.833 255 -65.5
s118.667 -107.167 150 -190.5c2.66699 19.333 4.5 41 5.5 65s1.5 46.667 1.5 68c0 46 -3.33301 89.333 -10 130s-16 82.334 -28 125.001h-233v102h197c-31.333 72.667 -72.666 137 -123.999 193s-114.333 97.333 -189 124l59 94c94 -40 172.833 -94.833 236.5 -164.5
s113.834 -151.834 150.501 -246.501h211v-102h-178zM591 785.001c-64 0 -119.003 -9.83105 -165.003 -29.498s-84 -46 -114 -79s-52.167 -71.333 -66.5 -115s-21.5 -89.167 -21.5 -136.5c0 -48.667 7.66699 -93.667 23 -135s37.333 -77 66 -107s63 -53.5 103 -70.5
s84.667 -25.5 134 -25.5c66 0 123.5 12.833 172.5 38.5s89.667 59.667 122 102s56.5 91.166 72.5 146.499s24 112.666 24 171.999c-10 34.667 -25.667 66.667 -47 96s-47.166 54.5 -77.499 75.5s-64.666 37.5 -102.999 49.5s-79.166 18 -122.499 18z" />
    <glyph glyph-name="ntilde" unicode="&#xf1;" horiz-adv-x="1217" 
d="M311 0l-123.998 0.00195312v788l-9 238h130l6 -201c80.667 150.667 207.334 226 380.001 226c50 0 93.833 -6 131.5 -18s70 -28.5 97 -49.5s49.167 -45.5 66.5 -73.5s30.666 -58.167 39.999 -90.5s16 -66 20 -101s6 -69.833 6 -104.5c0.666992 -18 1 -51.5 1 -100.5
v-180.5v-333h-124v542c0 36 -0.166992 64.333 -0.5 85s-0.833008 34 -1.5 40c-3.33301 94 -28.5 164.833 -75.5 212.5s-111.5 71.5 -193.5 71.5c-37.333 0 -71.833 -4.83301 -103.5 -14.5s-60.334 -22.5 -86.001 -38.5s-48.167 -34.167 -67.5 -54.5s-36.333 -41.333 -51 -63
s-25.334 -42.834 -32.001 -63.501s-10 -39.334 -10 -56.001v-661zM854.002 1451l62.002 0.000976562c-2.66699 -26 -8.5 -50.5 -17.5 -73.5s-21 -42.833 -36 -59.5s-32.833 -29.834 -53.5 -39.501s-43.667 -14.5 -69 -14.5c-16 0 -34 3.66699 -54 11l-64 24.5
c-22.667 9 -46.334 17.167 -71.001 24.5s-49 11 -73 11c-34 0 -61 -7.16699 -81 -21.5s-31.667 -36.5 -35 -66.5h-58c5.33301 54.667 23.666 98.667 54.999 132s73 50 125 50c20 0 40 -3.83301 60 -11.5s40.5 -16 61.5 -25s42.833 -17.167 65.5 -24.5s46.334 -11 71.001 -11
c30.667 0 56.167 7.66699 76.5 23s32.166 39 35.499 71z" />
    <glyph glyph-name="ograve" unicode="&#xf2;" horiz-adv-x="1238" 
d="M633 1051c85.333 0 160 -13.835 224 -41.502s117.5 -65.667 160.5 -114s75.333 -105.166 97 -170.499s32.5 -135.333 32.5 -210c0 -73.333 -11.5 -142.5 -34.5 -207.5s-56.5 -122 -100.5 -171s-98.5 -87.833 -163.5 -116.5s-139.5 -43 -223.5 -43
c-83.333 0 -157 13.667 -221 41s-117.833 65 -161.5 113s-76.667 104.333 -99 169s-33.5 134.334 -33.5 209.001s11.5 145 34.5 211s56.667 123.5 101 172.5s99 87.667 164 116s139.5 42.5 223.5 42.5zM1017 510.998c0 59.333 -7.83301 115.667 -23.5 169
s-39.5 100 -71.5 140s-72.5 71.833 -121.5 95.5s-107.167 35.5 -174.5 35.5c-64 0 -120 -12.167 -168 -36.5s-88.333 -57 -121 -98s-57.167 -88 -73.5 -141s-24.5 -108.167 -24.5 -165.5s8.16699 -112.333 24.5 -165s41 -99 74 -139s74 -71.833 123 -95.5
s106.167 -35.5 171.5 -35.5c64 0 120.167 12 168.5 36s88.5 56 120.5 96s56 86.333 72 139s24 107.667 24 165zM327 1508h158l229 -292h-82z" />
    <glyph glyph-name="oacute" unicode="&#xf3;" horiz-adv-x="1238" 
d="M661 1508h159l-285 -292h-80zM633 1051c85.333 0 160 -13.835 224 -41.502s117.5 -65.667 160.5 -114s75.333 -105.166 97 -170.499s32.5 -135.333 32.5 -210c0 -73.333 -11.5 -142.5 -34.5 -207.5s-56.5 -122 -100.5 -171s-98.5 -87.833 -163.5 -116.5
s-139.5 -43 -223.5 -43c-83.333 0 -157 13.667 -221 41s-117.833 65 -161.5 113s-76.667 104.333 -99 169s-33.5 134.334 -33.5 209.001s11.5 145 34.5 211s56.667 123.5 101 172.5s99 87.667 164 116s139.5 42.5 223.5 42.5zM1017 510.998
c0 59.333 -7.83301 115.667 -23.5 169s-39.5 100 -71.5 140s-72.5 71.833 -121.5 95.5s-107.167 35.5 -174.5 35.5c-64 0 -120 -12.167 -168 -36.5s-88.333 -57 -121 -98s-57.167 -88 -73.5 -141s-24.5 -108.167 -24.5 -165.5s8.16699 -112.333 24.5 -165s41 -99 74 -139
s74 -71.833 123 -95.5s106.167 -35.5 171.5 -35.5c64 0 120.167 12 168.5 36s88.5 56 120.5 96s56 86.333 72 139s24 107.667 24 165z" />
    <glyph glyph-name="ocircumflex" unicode="&#xf4;" horiz-adv-x="1238" 
d="M325 1214l209 296h135l208 -296h-79l-199 240l-200 -240h-74zM633 1051c85.333 0 160 -13.835 224 -41.502s117.5 -65.667 160.5 -114s75.333 -105.166 97 -170.499s32.5 -135.333 32.5 -210c0 -73.333 -11.5 -142.5 -34.5 -207.5s-56.5 -122 -100.5 -171
s-98.5 -87.833 -163.5 -116.5s-139.5 -43 -223.5 -43c-83.333 0 -157 13.667 -221 41s-117.833 65 -161.5 113s-76.667 104.333 -99 169s-33.5 134.334 -33.5 209.001s11.5 145 34.5 211s56.667 123.5 101 172.5s99 87.667 164 116s139.5 42.5 223.5 42.5zM1017 510.998
c0 59.333 -7.83301 115.667 -23.5 169s-39.5 100 -71.5 140s-72.5 71.833 -121.5 95.5s-107.167 35.5 -174.5 35.5c-64 0 -120 -12.167 -168 -36.5s-88.333 -57 -121 -98s-57.167 -88 -73.5 -141s-24.5 -108.167 -24.5 -165.5s8.16699 -112.333 24.5 -165s41 -99 74 -139
s74 -71.833 123 -95.5s106.167 -35.5 171.5 -35.5c64 0 120.167 12 168.5 36s88.5 56 120.5 96s56 86.333 72 139s24 107.667 24 165z" />
    <glyph glyph-name="otilde" unicode="&#xf5;" horiz-adv-x="1238" 
d="M633 1051c85.333 0 160 -13.835 224 -41.502s117.5 -65.667 160.5 -114s75.333 -105.166 97 -170.499s32.5 -135.333 32.5 -210c0 -73.333 -11.5 -142.5 -34.5 -207.5s-56.5 -122 -100.5 -171s-98.5 -87.833 -163.5 -116.5s-139.5 -43 -223.5 -43
c-83.333 0 -157 13.667 -221 41s-117.833 65 -161.5 113s-76.667 104.333 -99 169s-33.5 134.334 -33.5 209.001s11.5 145 34.5 211s56.667 123.5 101 172.5s99 87.667 164 116s139.5 42.5 223.5 42.5zM1017 510.998c0 59.333 -7.83301 115.667 -23.5 169
s-39.5 100 -71.5 140s-72.5 71.833 -121.5 95.5s-107.167 35.5 -174.5 35.5c-64 0 -120 -12.167 -168 -36.5s-88.333 -57 -121 -98s-57.167 -88 -73.5 -141s-24.5 -108.167 -24.5 -165.5s8.16699 -112.333 24.5 -165s41 -99 74 -139s74 -71.833 123 -95.5
s106.167 -35.5 171.5 -35.5c64 0 120.167 12 168.5 36s88.5 56 120.5 96s56 86.333 72 139s24 107.667 24 165zM864 1451l62.002 0.000976562c-2.66699 -26 -8.5 -50.5 -17.5 -73.5s-21 -42.833 -36 -59.5s-32.833 -29.834 -53.5 -39.501s-43.667 -14.5 -69 -14.5
c-16 0 -34 3.66699 -54 11l-64 24.5c-22.667 9 -46.334 17.167 -71.001 24.5s-49 11 -73 11c-34 0 -61 -7.16699 -81 -21.5s-31.667 -36.5 -35 -66.5h-58c5.33301 54.667 23.666 98.667 54.999 132s73 50 125 50c20 0 40 -3.83301 60 -11.5s40.5 -16 61.5 -25
s42.833 -17.167 65.5 -24.5s46.334 -11 71.001 -11c30.667 0 56.167 7.66699 76.5 23s32.166 39 35.499 71z" />
    <glyph glyph-name="odieresis" unicode="&#xf6;" horiz-adv-x="1238" 
d="M498 1293h-119v128h120zM874 1293h-123v128h123v-128zM633 1051c85.333 0 160 -13.835 224 -41.502s117.5 -65.667 160.5 -114s75.333 -105.166 97 -170.499s32.5 -135.333 32.5 -210c0 -73.333 -11.5 -142.5 -34.5 -207.5s-56.5 -122 -100.5 -171
s-98.5 -87.833 -163.5 -116.5s-139.5 -43 -223.5 -43c-83.333 0 -157 13.667 -221 41s-117.833 65 -161.5 113s-76.667 104.333 -99 169s-33.5 134.334 -33.5 209.001s11.5 145 34.5 211s56.667 123.5 101 172.5s99 87.667 164 116s139.5 42.5 223.5 42.5zM1017 510.998
c0 59.333 -7.83301 115.667 -23.5 169s-39.5 100 -71.5 140s-72.5 71.833 -121.5 95.5s-107.167 35.5 -174.5 35.5c-64 0 -120 -12.167 -168 -36.5s-88.333 -57 -121 -98s-57.167 -88 -73.5 -141s-24.5 -108.167 -24.5 -165.5s8.16699 -112.333 24.5 -165s41 -99 74 -139
s74 -71.833 123 -95.5s106.167 -35.5 171.5 -35.5c64 0 120.167 12 168.5 36s88.5 56 120.5 96s56 86.333 72 139s24 107.667 24 165z" />
    <glyph glyph-name="divide" unicode="&#xf7;" horiz-adv-x="1458" 
d="M218 504v104h1038v-104h-1038zM829 58h-172v179h173zM834 875h-173v179h173v-179z" />
    <glyph glyph-name="oslash" unicode="&#xf8;" horiz-adv-x="1238" 
d="M310 -175l76.9961 201.997c-45.333 20.667 -85.166 47.334 -119.499 80.001s-63.166 69.834 -86.499 111.501s-41 87 -53 136s-18 100.5 -18 154.5c0 74.667 11.5 145 34.5 211s56.667 123.5 101 172.5s99 87.667 164 116s139.5 42.5 223.5 42.5c50 0 96.667 -5 140 -15
l59 153h121l-74 -191c44.667 -22 83.834 -49.667 117.501 -83s61.667 -70.666 84 -111.999s39 -86.5 50 -135.5s16.5 -99.833 16.5 -152.5c0 -73.333 -11.5 -142.5 -34.5 -207.5s-56.5 -122 -100.5 -171s-98.5 -87.833 -163.5 -116.5s-139.5 -43 -223.5 -43
c-23.333 0 -46.166 1.16699 -68.499 3.5s-44.5 5.83301 -66.5 10.5l-64 -166h-116zM625.996 950.997c-64 0 -120 -12.167 -168 -36.5s-88.333 -57 -121 -98s-57.167 -88 -73.5 -141s-24.5 -108.167 -24.5 -165.5c0 -39.333 3.83301 -77.5 11.5 -114.5
s19.167 -71.833 34.5 -104.5s34.833 -62.667 58.5 -90s51.167 -51 82.5 -71l309 808c-32 8.66699 -68.333 13 -109 13zM1017 510.997c0 80.667 -14.333 154.332 -43 220.999s-74 120.334 -136 161.001l-312 -806c32.667 -8 68 -12 106 -12c64 0 120.167 12 168.5 36
s88.5 56 120.5 96s56 86.333 72 139s24 107.667 24 165z" />
    <glyph glyph-name="ugrave" unicode="&#xf9;" horiz-adv-x="1217" 
d="M925 1026h124.002v-789c0 -10.667 0.333008 -35.667 1 -75s2 -93.333 4 -162h-129v203c-37.333 -78.667 -87.333 -136 -150 -172s-139 -54 -229 -54c-74 0 -134.833 12.667 -182.5 38s-85.334 58 -113.001 98s-46.834 84.833 -57.501 134.5s-16 99.167 -16 148.5v630h124
v-621c2 -54 7.33301 -101.5 16 -142.5s24.5 -75.333 47.5 -103s52.833 -48.667 89.5 -63s81.667 -21.5 135 -21.5c54 0 101.833 8.83301 143.5 26.5s76.667 42 105 73s50 67.5 65 109.5s22.5 87.667 22.5 137v12v593zM317.002 1508h158l229 -292h-82z" />
    <glyph glyph-name="uacute" unicode="&#xfa;" horiz-adv-x="1217" 
d="M651 1508h159l-285 -292h-80zM925 1026h124.002v-789c0 -10.667 0.333008 -35.667 1 -75s2 -93.333 4 -162h-129v203c-37.333 -78.667 -87.333 -136 -150 -172s-139 -54 -229 -54c-74 0 -134.833 12.667 -182.5 38s-85.334 58 -113.001 98s-46.834 84.833 -57.501 134.5
s-16 99.167 -16 148.5v630h124v-621c2 -54 7.33301 -101.5 16 -142.5s24.5 -75.333 47.5 -103s52.833 -48.667 89.5 -63s81.667 -21.5 135 -21.5c54 0 101.833 8.83301 143.5 26.5s76.667 42 105 73s50 67.5 65 109.5s22.5 87.667 22.5 137v12v593z" />
    <glyph glyph-name="ucircumflex" unicode="&#xfb;" horiz-adv-x="1217" 
d="M314 1214l209 296h135l208 -296h-79l-199 240l-200 -240h-74zM925 1026h124.002v-789c0 -10.667 0.333008 -35.667 1 -75s2 -93.333 4 -162h-129v203c-37.333 -78.667 -87.333 -136 -150 -172s-139 -54 -229 -54c-74 0 -134.833 12.667 -182.5 38s-85.334 58 -113.001 98
s-46.834 84.833 -57.501 134.5s-16 99.167 -16 148.5v630h124v-621c2 -54 7.33301 -101.5 16 -142.5s24.5 -75.333 47.5 -103s52.833 -48.667 89.5 -63s81.667 -21.5 135 -21.5c54 0 101.833 8.83301 143.5 26.5s76.667 42 105 73s50 67.5 65 109.5s22.5 87.667 22.5 137v12
v593z" />
    <glyph glyph-name="udieresis" unicode="&#xfc;" horiz-adv-x="1217" 
d="M487 1293h-119v128h120zM863 1293h-123v128h123v-128zM925 1026h124.002v-789c0 -10.667 0.333008 -35.667 1 -75s2 -93.333 4 -162h-129v203c-37.333 -78.667 -87.333 -136 -150 -172s-139 -54 -229 -54c-74 0 -134.833 12.667 -182.5 38s-85.334 58 -113.001 98
s-46.834 84.833 -57.501 134.5s-16 99.167 -16 148.5v630h124v-621c2 -54 7.33301 -101.5 16 -142.5s24.5 -75.333 47.5 -103s52.833 -48.667 89.5 -63s81.667 -21.5 135 -21.5c54 0 101.833 8.83301 143.5 26.5s76.667 42 105 73s50 67.5 65 109.5s22.5 87.667 22.5 137v12
v593z" />
    <glyph glyph-name="yacute" unicode="&#xfd;" horiz-adv-x="1069" 
d="M46 1026l131.001 0.000976562l363 -936l376 936h128l-463 -1110c-18.667 -44.667 -40.334 -86.834 -65.001 -126.501s-52.5 -75 -83.5 -106s-65.167 -57.167 -102.5 -78.5s-78 -36 -122 -44l-67 81c54 14 98.667 32 134 54s64.333 46 87 72s40.667 53 54 81
s25.333 54.667 36 80l25 61zM572.001 1508h159l-285 -292h-80z" />
    <glyph glyph-name="thorn" unicode="&#xfe;" horiz-adv-x="1239" 
d="M301 -443h-121v1526l-18 259h136l3 -524c40.667 82 96 141.333 166 178s149.667 55 239 55c74.667 0 139.5 -13.833 194.5 -41.5s100.667 -65.167 137 -112.5s63.5 -102.666 81.5 -165.999s27 -130.666 27 -201.999c0 -72.667 -9.66699 -142.334 -29 -209.001
s-48.333 -125.334 -87 -176.001s-87.167 -91.167 -145.5 -121.5s-126.5 -45.5 -204.5 -45.5c-166 0 -293 72.333 -381 217zM299 494c0 -60 7.99902 -115.5 23.999 -166.5s39.333 -95.333 70 -133s68.334 -67 113.001 -88s96 -31.5 154 -31.5c62 0 115.333 12.167 160 36.5
s81.334 57 110.001 98s49.834 88.333 63.501 142s20.5 110.167 20.5 169.5c0 55.333 -6 108.833 -18 160.5s-31.833 97.5 -59.5 137.5s-63.834 72 -108.501 96s-99.334 36 -164.001 36c-68.667 0 -126.334 -12.667 -173.001 -38s-84.167 -59 -112.5 -101
s-48.666 -90.5 -60.999 -145.5s-18.5 -112.5 -18.5 -172.5z" />
    <glyph glyph-name="ydieresis" unicode="&#xff;" horiz-adv-x="1069" 
d="M46 1026l131.001 0.000976562l363 -936l376 936h128l-463 -1110c-18.667 -44.667 -40.334 -86.834 -65.001 -126.501s-52.5 -75 -83.5 -106s-65.167 -57.167 -102.5 -78.5s-78 -36 -122 -44l-67 81c54 14 98.667 32 134 54s64.333 46 87 72s40.667 53 54 81
s25.333 54.667 36 80l25 61zM413.001 1293h-119v128h120zM789.001 1293h-123v128h123v-128z" />
    <glyph glyph-name="dotlessi" unicode="&#x131;" horiz-adv-x="503" 
d="M317 0h-124v1026h124v-1026z" />
    <glyph glyph-name="Lslash" unicode="&#x141;" horiz-adv-x="1120" 
d="M1068 0h-844v618l-248 -110v102l251 109v737h128v-681l462 205v-102l-464 -204v-560h715v-114z" />
    <glyph glyph-name="lslash" unicode="&#x142;" horiz-adv-x="503" 
d="M315 1508v-750l234 104v-102l-235 -103v-657h-121v604l-217 -96v102l218 95v803h121z" />
    <glyph glyph-name="OE" unicode="&#x152;" horiz-adv-x="2099" 
d="M125 727c0 110.667 16.166 212.165 48.499 304.498s78.833 172 139.5 239s134.334 119.167 221.001 156.5s184.667 56 294 56c68.667 0 133.167 -6.83301 193.5 -20.5s118.166 -39.834 173.499 -78.501l6 35c2 12 3.33301 24 4 36l764 1v-114h-648v-538h610v-113h-611
v-577h679v-114h-810l-1 110c-17.333 -14.667 -39.166 -29.834 -65.499 -45.501s-58.333 -30 -96 -43s-81.667 -23.667 -132 -32s-107.833 -12.5 -172.5 -12.5c-68 0 -130 9 -186 27s-106 43.333 -150 76s-82.5 71.834 -115.5 117.501s-60.167 96.334 -81.5 152.001
s-37.333 115.334 -48 179.001s-16 129.834 -16 198.501zM1188 1302c-19.333 7.33301 -41.168 15.002 -65.501 23.002s-51.5 15.167 -81.5 21.5s-62.667 11.666 -98 15.999s-73.666 6.5 -114.999 6.5c-93.333 0 -175.333 -17.667 -246 -53s-129.667 -82.833 -177 -142.5
s-83 -128.167 -107 -205.5s-36 -158 -36 -242c0 -111.333 12.667 -207.833 38 -289.5s60 -149.334 104 -203.001s95.833 -93.5 155.5 -119.5s124.167 -39 193.5 -39c68 0 137.833 11.833 209.5 35.5s144.167 58.5 217.5 104.5l8 823v264z" />
    <glyph glyph-name="oe" unicode="&#x153;" horiz-adv-x="1970" 
d="M1895 491l-783.006 4.00195v-45c0 -50.667 6.66699 -98.667 20 -144s34 -85.166 62 -119.499s63.833 -61.5 107.5 -81.5s95.834 -30 156.501 -30c36.667 0 72.167 4.16699 106.5 12.5s66.333 20 96 35s56.5 33.167 80.5 54.5s44.333 45 61 71l57 -58
c-44 -74.667 -101.667 -129.667 -173 -165s-153 -53 -245 -53c-46.667 0 -90.667 5.5 -132 16.5s-78.666 27.667 -111.999 50s-62.5 50.166 -87.5 83.499s-44.5 72.666 -58.5 117.999c0 1.33301 -2.16699 2.33301 -6.5 3s-6.16602 1.66699 -5.49902 3
c-38 -92 -93.667 -160.667 -167 -206s-159.666 -68 -258.999 -68c-81.333 0 -153.5 14 -216.5 42s-116.167 66.167 -159.5 114.5s-76.166 105 -98.499 170s-33.5 134.5 -33.5 208.5c0 74.667 11.667 145.167 35 211.5s57.166 124.166 101.499 173.499
s98.833 88.5 163.5 117.5s138.667 43.5 222 43.5c108 0 196.333 -22.667 265 -68s122.334 -113.333 161.001 -204c34.667 90 85.834 157.833 153.501 203.5s150.5 68.5 248.5 68.5c76.667 0 142.667 -13.5 198 -40.5s101 -65.167 137 -114.5s62.5 -108.5 79.5 -177.5
s25.5 -145.5 25.5 -229.5zM1111.99 593.002h649.999v41c0 44 -6.5 85.333 -19.5 124s-32.333 72.167 -58 100.5s-57.667 50.833 -96 67.5s-82.833 25 -133.5 25c-54 0 -102.167 -9.83301 -144.5 -29.5s-78.166 -46 -107.499 -79s-51.833 -71.167 -67.5 -114.5
s-23.5 -88.333 -23.5 -135zM989.993 511.002c0 62 -7.50098 119.836 -22.501 173.503s-37.833 100.167 -68.5 139.5s-69.5 70.333 -116.5 93s-102.5 34 -166.5 34c-62.667 0 -117.667 -12.167 -165 -36.5s-87 -57 -119 -98s-56.167 -88.333 -72.5 -142
s-24.5 -109.834 -24.5 -168.501c0 -58 8 -113 24 -165s40.167 -97.833 72.5 -137.5s73 -71 122 -94s106.5 -34.5 172.5 -34.5c62.667 0 116.834 12 162.501 36s83.5 56.167 113.5 96.5s52.167 86.666 66.5 138.999s21.5 107.166 21.5 164.499z" />
    <glyph glyph-name="Scaron" unicode="&#x160;" 
d="M207 250c32.667 -36.667 65.499 -65.498 98.499 -86.498s66 -36.833 99 -47.5s65.833 -17.5 98.5 -20.5s65 -4.5 97 -4.5c57.333 0 110 5.66699 158 17s89.167 28 123.5 50s61.166 49.333 80.499 82s29 70.667 29 114c0 49.333 -11.833 91.166 -35.5 125.499
s-55 64.166 -94 89.499s-83.167 47.666 -132.5 66.999l-152 57.5c-52 19 -102.667 39.667 -152 62s-93.5 49 -132.5 80s-70.333 68 -94 111s-35.5 95.167 -35.5 156.5c0 62.667 14.667 117.667 44 165s68.333 87 117 119s103.834 56 165.501 72s125.167 24 190.5 24
c32 0 65 -2.16699 99 -6.5s67.667 -11.5 101 -21.5s65.5 -23.5 96.5 -40.5s59.5 -38.167 85.5 -63.5l-49 -93c-46 40 -98.5 68.333 -157.5 85s-118.167 25 -177.5 25c-45.333 0 -90.333 -4.66699 -135 -14s-84.834 -24.333 -120.501 -45s-64.667 -47 -87 -79
s-33.5 -70.333 -33.5 -115c0 -47.333 11.833 -87.666 35.5 -120.999s55 -62.833 94 -88.5s83.333 -48.667 133 -69l152.5 -61.5c52 -20.667 102.833 -42.667 152.5 -66s94 -51.166 133 -83.499s70.333 -70.166 94 -113.499s35.5 -95.333 35.5 -156
c0 -46.667 -7.5 -88.5 -22.5 -125.5s-35.833 -69.5 -62.5 -97.5s-57.667 -51.833 -93 -71.5s-73.666 -35.834 -114.999 -48.501s-84.166 -21.834 -128.499 -27.501s-88.5 -8.5 -132.5 -8.5c-86 0 -165.833 16 -239.5 48s-135.5 80.333 -185.5 145zM904.999 1939l-218 -295
h-134l-219 295h98l181 -240l191 240h101z" />
    <glyph glyph-name="scaron" unicode="&#x161;" horiz-adv-x="1007" 
d="M800 894c-29.333 18 -69.4971 32.0029 -120.497 42.0029s-106.833 15 -167.5 15c-35.333 0 -68 -3.83301 -98 -11.5s-55.833 -18.667 -77.5 -33s-38.5 -31.666 -50.5 -51.999s-18 -43.5 -18 -69.5c0 -33.333 4.83301 -59.666 14.5 -78.999s23.834 -35.166 42.501 -47.499
s41.667 -22.333 69 -30s58.666 -16 93.999 -25s74.333 -20.333 117 -34s88.667 -32.5 138 -56.5c18 -8.66699 36.667 -19.167 56 -31.5s37 -27.833 53 -46.5s29 -40.834 39 -66.501s15 -55.834 15 -90.501c0 -51.333 -11.833 -95.833 -35.5 -133.5s-54.834 -69 -93.501 -94
s-82.834 -43.5 -132.501 -55.5s-100.5 -18 -152.5 -18c-35.333 0 -70.166 1.83301 -104.499 5.5s-66.833 9.66699 -97.5 18s-58.834 19.166 -84.501 32.499s-47.167 29.666 -64.5 48.999l31 94c15.333 -17.333 34.666 -32.333 57.999 -45s48.833 -23.167 76.5 -31.5
s57 -14.5 88 -18.5s62.167 -6 93.5 -6c42 0 80.667 4 116 12s65.833 19.667 91.5 35s45.5 34.666 59.5 57.999s21 50.333 21 81c0 35.333 -8 64.666 -24 87.999s-38.333 43 -67 59s-62.334 29.833 -101.001 41.5l-127 36.5c-48.667 14.667 -92.5 30 -131.5 46
s-72.333 35 -100 57s-49 48.167 -64 78.5s-22.5 67.5 -22.5 111.5c0 46 10.5 86 31.5 120s48.833 62.333 83.5 85s73.834 39.5 117.501 50.5s88.5 16.5 134.5 16.5c66.667 0 128.167 -6 184.5 -18s102.5 -32 138.5 -60zM778.003 1509l-218 -295h-134l-219 295h98l181 -240
l191 240h101z" />
    <glyph glyph-name="Ydieresis" unicode="&#x178;" horiz-adv-x="1266" 
d="M707 588v-588h-133v582l-531 874h144l456 -765l463 765h138zM547 1723h-119v128h120zM923 1723h-123v128h123v-128z" />
    <glyph glyph-name="Zcaron" unicode="&#x17d;" horiz-adv-x="1222" 
d="M1143 0h-1067v70l907 1272h-870v114h1044v-66l-912 -1276h898v-114zM872 1939l-218 -295h-134l-219 295h98l181 -240l191 240h101z" />
    <glyph glyph-name="zcaron" unicode="&#x17e;" horiz-adv-x="958" 
d="M78 67l643 855h-615v104h776v-65l-640 -858h657l-20 -103h-801v67zM771 1509l-218 -295h-134l-219 295h98l181 -240l191 240h101z" />
    <glyph glyph-name="florin" unicode="&#x192;" horiz-adv-x="702" 
d="M398 0l-126.002 -0.000976562v920h-205v106h208l-2 134c0 5.33301 -0.166992 10.333 -0.5 15s-0.5 9.66699 -0.5 15c0 54 5.5 102.167 16.5 144.5s28.167 78.333 51.5 108s53.166 52.167 89.499 67.5s79.833 23 130.5 23c14.667 0 27.334 -0.5 38.001 -1.5
s20.334 -2.16699 29.001 -3.5s16.834 -3.16602 24.501 -5.49902s16.5 -4.83301 26.5 -7.5l-1 -96c-8 2.66699 -19.167 5 -33.5 7s-33.5 3 -57.5 3c-40 0 -72.667 -5.16699 -98 -15.5s-45 -25.833 -59 -46.5s-23.5 -46 -28.5 -76s-7.5 -64.667 -7.5 -104l2 -161h258v-106
h-255v-920z" />
    <glyph glyph-name="uni0200" unicode="&#x200;" horiz-adv-x="1425" 
d="M177 0h-139l609 1456h151l603 -1456h-141l-179 426h-734zM382 520h665l-246 648l-79 221l-77 -221zM549 1648l-298 285h123l242 -285h-67zM827 1648l-294 285h120l243 -285h-69z" />
    <glyph glyph-name="uni0201" unicode="&#x201;" 
d="M596 1051c48 0 91.165 -5.16699 129.498 -15.5s73.333 -25 105 -44s60.667 -42.167 87 -69.5s51.5 -58.333 75.5 -93l5 197h120v-244v-782h-126l2 219c-9.33301 -27.333 -25.666 -55.166 -48.999 -83.499s-52.333 -54.333 -87 -78s-74.5 -43 -119.5 -58
s-93.5 -22.5 -145.5 -22.5c-84.667 0 -157.5 16.5 -218.5 49.5s-111.167 75.667 -150.5 128s-68.333 111 -87 176s-28 129.5 -28 193.5c0 66 10 130.667 30 194s50.333 119.666 91 168.999s91.334 89 152.001 119s132 45 214 45zM996.998 525
c-4 54 -13.1641 106.503 -27.4971 157.503s-36.5 96.5 -66.5 136.5s-69.167 72 -117.5 96s-108.5 36 -180.5 36c-67.333 0 -124.833 -13 -172.5 -39s-86.834 -59.833 -117.501 -101.5s-53 -88.167 -67 -139.5s-21 -102.333 -21 -153s5.33301 -102.167 16 -154.5
s30.167 -99.833 58.5 -142.5s67.666 -77.667 117.999 -105s115.166 -41 194.499 -41c53.333 0 103.333 8.66699 150 26s87.167 43.666 121.5 78.999s61.5 79.666 81.5 132.999s30 115.666 30 186.999v25zM491.001 1218l-298 285h123l242 -285h-67zM769.001 1218l-294 285
h120l243 -285h-69z" />
    <glyph glyph-name="uni0202" unicode="&#x202;" horiz-adv-x="1425" 
d="M177 0h-139l609 1456h151l603 -1456h-141l-179 426h-734zM382 520h665l-246 648l-79 221l-77 -221zM416 1692c3.33301 35.333 12.1699 66 26.5029 92s33.166 47.667 56.499 65s50.666 30.166 81.999 38.499s65.666 12.5 102.999 12.5c77.333 0 139.5 -16.833 186.5 -50.5
s73.167 -86.167 78.5 -157.5h-40c-4 24.667 -13 45.667 -27 63s-31.167 31.5 -51.5 42.5s-42.833 18.833 -67.5 23.5s-50 7 -76 7s-51.5 -2.66699 -76.5 -8s-47.833 -13.5 -68.5 -24.5s-38.667 -25.167 -54 -42.5s-26 -37.666 -32 -60.999h-40z" />
    <glyph glyph-name="uni0203" unicode="&#x203;" 
d="M596 1051c48 0 91.165 -5.16699 129.498 -15.5s73.333 -25 105 -44s60.667 -42.167 87 -69.5s51.5 -58.333 75.5 -93l5 197h120v-244v-782h-126l2 219c-9.33301 -27.333 -25.666 -55.166 -48.999 -83.499s-52.333 -54.333 -87 -78s-74.5 -43 -119.5 -58
s-93.5 -22.5 -145.5 -22.5c-84.667 0 -157.5 16.5 -218.5 49.5s-111.167 75.667 -150.5 128s-68.333 111 -87 176s-28 129.5 -28 193.5c0 66 10 130.667 30 194s50.333 119.666 91 168.999s91.334 89 152.001 119s132 45 214 45zM996.998 525
c-4 54 -13.1641 106.503 -27.4971 157.503s-36.5 96.5 -66.5 136.5s-69.167 72 -117.5 96s-108.5 36 -180.5 36c-67.333 0 -124.833 -13 -172.5 -39s-86.834 -59.833 -117.501 -101.5s-53 -88.167 -67 -139.5s-21 -102.333 -21 -153s5.33301 -102.167 16 -154.5
s30.167 -99.833 58.5 -142.5s67.666 -77.667 117.999 -105s115.166 -41 194.499 -41c53.333 0 103.333 8.66699 150 26s87.167 43.666 121.5 78.999s61.5 79.666 81.5 132.999s30 115.666 30 186.999v25zM257.001 1262c3.33301 35.333 12.1699 66 26.5029 92
s33.166 47.667 56.499 65s50.666 30.166 81.999 38.499s65.666 12.5 102.999 12.5c77.333 0 139.5 -16.833 186.5 -50.5s73.167 -86.167 78.5 -157.5h-40c-4 24.667 -13 45.667 -27 63s-31.167 31.5 -51.5 42.5s-42.833 18.833 -67.5 23.5s-50 7 -76 7
s-51.5 -2.66699 -76.5 -8s-47.833 -13.5 -68.5 -24.5s-38.667 -25.167 -54 -42.5s-26 -37.666 -32 -60.999h-40z" />
    <glyph glyph-name="uni0204" unicode="&#x204;" horiz-adv-x="1218" 
d="M1096 114v-114h-870v1456h842v-114h-710v-538h670v-113h-672v-577h740zM446 1648l-298 285h123l242 -285h-67zM724 1648l-294 285h120l243 -285h-69z" />
    <glyph glyph-name="uni0205" unicode="&#x205;" horiz-adv-x="1173" 
d="M268 593h687.001v2v-7c-2 54 -9.5 103.167 -22.5 147.5s-32.5 82.5 -58.5 114.5s-59.167 56.833 -99.5 74.5s-88.833 26.5 -145.5 26.5c-55.333 0 -104.333 -9.5 -147 -28.5s-79 -44.833 -109 -77.5s-53.833 -70.667 -71.5 -114s-28.834 -89.333 -33.501 -138zM1001 202
l35.9971 -96.001c-50 -46 -108.167 -79 -174.5 -99s-141.166 -30 -224.499 -30c-79.333 0 -150.166 13.167 -212.499 39.5s-115 63 -158 110s-75.833 103 -98.5 168s-34 136.167 -34 213.5c0 74 11.333 144 34 210s55.334 123.667 98.001 173s94.834 88.333 156.501 117
s131.5 43 209.5 43c77.333 0 144.5 -13 201.5 -39s104 -62.167 141 -108.5s64.5 -101.833 82.5 -166.5s27 -136 27 -214c0 -5.33301 -0.166992 -11.166 -0.5 -17.499s-0.5 -11.166 -0.5 -14.499h-818v-19c0 -59.333 8.83301 -113.333 26.5 -162
s43.167 -90.334 76.5 -125.001s73.666 -61.667 120.999 -81s101 -29 161 -29c74.667 0 141.667 11 201 33s109 53.333 149 94zM456.998 1218l-298 285h123l242 -285h-67zM734.998 1218l-294 285h120l243 -285h-69z" />
    <glyph glyph-name="uni0206" unicode="&#x206;" horiz-adv-x="1218" 
d="M1096 114v-114h-870v1456h842v-114h-710v-538h670v-113h-672v-577h740zM313 1692c3.33301 35.333 12.1699 66 26.5029 92s33.166 47.667 56.499 65s50.666 30.166 81.999 38.499s65.666 12.5 102.999 12.5c77.333 0 139.5 -16.833 186.5 -50.5
s73.167 -86.167 78.5 -157.5h-40c-4 24.667 -13 45.667 -27 63s-31.167 31.5 -51.5 42.5s-42.833 18.833 -67.5 23.5s-50 7 -76 7s-51.5 -2.66699 -76.5 -8s-47.833 -13.5 -68.5 -24.5s-38.667 -25.167 -54 -42.5s-26 -37.666 -32 -60.999h-40z" />
    <glyph glyph-name="uni0207" unicode="&#x207;" horiz-adv-x="1173" 
d="M268 593h687.001v2v-7c-2 54 -9.5 103.167 -22.5 147.5s-32.5 82.5 -58.5 114.5s-59.167 56.833 -99.5 74.5s-88.833 26.5 -145.5 26.5c-55.333 0 -104.333 -9.5 -147 -28.5s-79 -44.833 -109 -77.5s-53.833 -70.667 -71.5 -114s-28.834 -89.333 -33.501 -138zM1001 202
l35.9971 -96.001c-50 -46 -108.167 -79 -174.5 -99s-141.166 -30 -224.499 -30c-79.333 0 -150.166 13.167 -212.499 39.5s-115 63 -158 110s-75.833 103 -98.5 168s-34 136.167 -34 213.5c0 74 11.333 144 34 210s55.334 123.667 98.001 173s94.834 88.333 156.501 117
s131.5 43 209.5 43c77.333 0 144.5 -13 201.5 -39s104 -62.167 141 -108.5s64.5 -101.833 82.5 -166.5s27 -136 27 -214c0 -5.33301 -0.166992 -11.166 -0.5 -17.499s-0.5 -11.166 -0.5 -14.499h-818v-19c0 -59.333 8.83301 -113.333 26.5 -162
s43.167 -90.334 76.5 -125.001s73.666 -61.667 120.999 -81s101 -29 161 -29c74.667 0 141.667 11 201 33s109 53.333 149 94zM348.998 1262c3.33301 35.333 12.1699 66 26.5029 92s33.166 47.667 56.499 65s50.666 30.166 81.999 38.499s65.666 12.5 102.999 12.5
c77.333 0 139.5 -16.833 186.5 -50.5s73.167 -86.167 78.5 -157.5h-40c-4 24.667 -13 45.667 -27 63s-31.167 31.5 -51.5 42.5s-42.833 18.833 -67.5 23.5s-50 7 -76 7s-51.5 -2.66699 -76.5 -8s-47.833 -13.5 -68.5 -24.5s-38.667 -25.167 -54 -42.5
s-26 -37.666 -32 -60.999h-40z" />
    <glyph glyph-name="uni0208" unicode="&#x208;" horiz-adv-x="591" 
d="M370 0h-135v1456h135v-1456zM133 1648l-298 285h123l242 -285h-67zM411 1648l-294 285h120l243 -285h-69z" />
    <glyph glyph-name="uni0209" unicode="&#x209;" horiz-adv-x="503" 
d="M317 0h-124v1026h124v-1026zM122 1218l-298 285h123l242 -285h-67zM400 1218l-294 285h120l243 -285h-69z" />
    <glyph glyph-name="uni020A" unicode="&#x20a;" horiz-adv-x="591" 
d="M370 0h-135v1456h135v-1456zM22 1692c3.33301 35.333 12.1699 66 26.5029 92s33.166 47.667 56.499 65s50.666 30.166 81.999 38.499s65.666 12.5 102.999 12.5c77.333 0 139.5 -16.833 186.5 -50.5s73.167 -86.167 78.5 -157.5h-40c-4 24.667 -13 45.667 -27 63
s-31.167 31.5 -51.5 42.5s-42.833 18.833 -67.5 23.5s-50 7 -76 7s-51.5 -2.66699 -76.5 -8s-47.833 -13.5 -68.5 -24.5s-38.667 -25.167 -54 -42.5s-26 -37.666 -32 -60.999h-40z" />
    <glyph glyph-name="uni020B" unicode="&#x20b;" horiz-adv-x="503" 
d="M317 0h-124v1026h124v-1026zM-25 1262c3.33301 35.333 12.1699 66 26.5029 92s33.166 47.667 56.499 65s50.666 30.166 81.999 38.499s65.666 12.5 102.999 12.5c77.333 0 139.5 -16.833 186.5 -50.5s73.167 -86.167 78.5 -157.5h-40c-4 24.667 -13 45.667 -27 63
s-31.167 31.5 -51.5 42.5s-42.833 18.833 -67.5 23.5s-50 7 -76 7s-51.5 -2.66699 -76.5 -8s-47.833 -13.5 -68.5 -24.5s-38.667 -25.167 -54 -42.5s-26 -37.666 -32 -60.999h-40z" />
    <glyph glyph-name="uni020C" unicode="&#x20c;" horiz-adv-x="1663" 
d="M1551 730c0 -110 -16.1709 -211.163 -48.5039 -303.496s-79.166 -171.833 -140.499 -238.5s-136.166 -118.5 -224.499 -155.5s-188.166 -55.5 -299.499 -55.5c-109.333 0 -207.5 17.667 -294.5 53s-160.833 85.666 -221.5 150.999s-107.167 144.166 -139.5 236.499
s-48.5 195.5 -48.5 309.5c0 110 16.167 211.167 48.5 303.5s79.166 172 140.499 239s136.333 119.333 225 157s189.334 56.5 302.001 56.5c108 0 205.333 -17.833 292 -53.5s160.334 -86.334 221.001 -152.001s107.167 -144.834 139.5 -237.501s48.5 -196 48.5 -310z
M270.996 725.004c0 -88.667 12.167 -171.501 36.5 -248.501s60.5 -144 108.5 -201s107.333 -102 178 -135s152.334 -49.5 245.001 -49.5c94 0 176.5 16.333 247.5 49s130.167 77.834 177.5 135.501s82.833 125.667 106.5 204s35.5 163.5 35.5 255.5
c0 88.667 -11.667 171.667 -35 249s-58.5 144.5 -105.5 201.5s-105.833 101.833 -176.5 134.5s-153.334 49 -248.001 49c-93.333 0 -175.5 -17.667 -246.5 -53s-130.5 -82.5 -178.5 -141.5s-84.167 -127.5 -108.5 -205.5s-36.5 -159.333 -36.5 -244zM667.996 1648l-298 285
h123l242 -285h-67zM945.996 1648l-294 285h120l243 -285h-69z" />
    <glyph glyph-name="uni020D" unicode="&#x20d;" horiz-adv-x="1238" 
d="M633 1051c85.333 0 160 -13.835 224 -41.502s117.5 -65.667 160.5 -114s75.333 -105.166 97 -170.499s32.5 -135.333 32.5 -210c0 -73.333 -11.5 -142.5 -34.5 -207.5s-56.5 -122 -100.5 -171s-98.5 -87.833 -163.5 -116.5s-139.5 -43 -223.5 -43
c-83.333 0 -157 13.667 -221 41s-117.833 65 -161.5 113s-76.667 104.333 -99 169s-33.5 134.334 -33.5 209.001s11.5 145 34.5 211s56.667 123.5 101 172.5s99 87.667 164 116s139.5 42.5 223.5 42.5zM1017 510.998c0 59.333 -7.83301 115.667 -23.5 169
s-39.5 100 -71.5 140s-72.5 71.833 -121.5 95.5s-107.167 35.5 -174.5 35.5c-64 0 -120 -12.167 -168 -36.5s-88.333 -57 -121 -98s-57.167 -88 -73.5 -141s-24.5 -108.167 -24.5 -165.5s8.16699 -112.333 24.5 -165s41 -99 74 -139s74 -71.833 123 -95.5
s106.167 -35.5 171.5 -35.5c64 0 120.167 12 168.5 36s88.5 56 120.5 96s56 86.333 72 139s24 107.667 24 165zM488 1218l-298 285h123l242 -285h-67zM766 1218l-294 285h120l243 -285h-69z" />
    <glyph glyph-name="uni020E" unicode="&#x20e;" horiz-adv-x="1663" 
d="M1551 730c0 -110 -16.1709 -211.163 -48.5039 -303.496s-79.166 -171.833 -140.499 -238.5s-136.166 -118.5 -224.499 -155.5s-188.166 -55.5 -299.499 -55.5c-109.333 0 -207.5 17.667 -294.5 53s-160.833 85.666 -221.5 150.999s-107.167 144.166 -139.5 236.499
s-48.5 195.5 -48.5 309.5c0 110 16.167 211.167 48.5 303.5s79.166 172 140.499 239s136.333 119.333 225 157s189.334 56.5 302.001 56.5c108 0 205.333 -17.833 292 -53.5s160.334 -86.334 221.001 -152.001s107.167 -144.834 139.5 -237.501s48.5 -196 48.5 -310z
M270.996 725.004c0 -88.667 12.167 -171.501 36.5 -248.501s60.5 -144 108.5 -201s107.333 -102 178 -135s152.334 -49.5 245.001 -49.5c94 0 176.5 16.333 247.5 49s130.167 77.834 177.5 135.501s82.833 125.667 106.5 204s35.5 163.5 35.5 255.5
c0 88.667 -11.667 171.667 -35 249s-58.5 144.5 -105.5 201.5s-105.833 101.833 -176.5 134.5s-153.334 49 -248.001 49c-93.333 0 -175.5 -17.667 -246.5 -53s-130.5 -82.5 -178.5 -141.5s-84.167 -127.5 -108.5 -205.5s-36.5 -159.333 -36.5 -244zM525.996 1692
c3.33301 35.333 12.1699 66 26.5029 92s33.166 47.667 56.499 65s50.666 30.166 81.999 38.499s65.666 12.5 102.999 12.5c77.333 0 139.5 -16.833 186.5 -50.5s73.167 -86.167 78.5 -157.5h-40c-4 24.667 -13 45.667 -27 63s-31.167 31.5 -51.5 42.5
s-42.833 18.833 -67.5 23.5s-50 7 -76 7s-51.5 -2.66699 -76.5 -8s-47.833 -13.5 -68.5 -24.5s-38.667 -25.167 -54 -42.5s-26 -37.666 -32 -60.999h-40z" />
    <glyph glyph-name="uni020F" unicode="&#x20f;" horiz-adv-x="1238" 
d="M633 1051c85.333 0 160 -13.835 224 -41.502s117.5 -65.667 160.5 -114s75.333 -105.166 97 -170.499s32.5 -135.333 32.5 -210c0 -73.333 -11.5 -142.5 -34.5 -207.5s-56.5 -122 -100.5 -171s-98.5 -87.833 -163.5 -116.5s-139.5 -43 -223.5 -43
c-83.333 0 -157 13.667 -221 41s-117.833 65 -161.5 113s-76.667 104.333 -99 169s-33.5 134.334 -33.5 209.001s11.5 145 34.5 211s56.667 123.5 101 172.5s99 87.667 164 116s139.5 42.5 223.5 42.5zM1017 510.998c0 59.333 -7.83301 115.667 -23.5 169
s-39.5 100 -71.5 140s-72.5 71.833 -121.5 95.5s-107.167 35.5 -174.5 35.5c-64 0 -120 -12.167 -168 -36.5s-88.333 -57 -121 -98s-57.167 -88 -73.5 -141s-24.5 -108.167 -24.5 -165.5s8.16699 -112.333 24.5 -165s41 -99 74 -139s74 -71.833 123 -95.5
s106.167 -35.5 171.5 -35.5c64 0 120.167 12 168.5 36s88.5 56 120.5 96s56 86.333 72 139s24 107.667 24 165zM332 1262c3.33301 35.333 12.1699 66 26.5029 92s33.166 47.667 56.499 65s50.666 30.166 81.999 38.499s65.666 12.5 102.999 12.5
c77.333 0 139.5 -16.833 186.5 -50.5s73.167 -86.167 78.5 -157.5h-40c-4 24.667 -13 45.667 -27 63s-31.167 31.5 -51.5 42.5s-42.833 18.833 -67.5 23.5s-50 7 -76 7s-51.5 -2.66699 -76.5 -8s-47.833 -13.5 -68.5 -24.5s-38.667 -25.167 -54 -42.5
s-26 -37.666 -32 -60.999h-40z" />
    <glyph glyph-name="uni0210" unicode="&#x210;" horiz-adv-x="1377" 
d="M1139 0l-151.996 415.997c-18 48.667 -36 89.167 -54 121.5s-39.333 58.166 -64 77.499s-54 33 -88 41s-76 12 -126 12h-298v-668h-130v1456h342c39.333 0 82.166 -0.666992 128.499 -2s92.833 -5.66602 139.5 -12.999s91.667 -18.5 135 -33.5s81.833 -36.333 115.5 -64
s60.667 -62.667 81 -105s30.5 -94.166 30.5 -155.499c0 -48.667 -8.33301 -93.167 -25 -133.5s-40.334 -75.666 -71.001 -105.999s-67.334 -55.666 -110.001 -75.999s-90 -34.833 -142 -43.5c-1.33301 -4 -2 -6.66699 -2 -8c0 -0.666992 0.166992 -1.16699 0.5 -1.5
s0.5 -0.833008 0.5 -1.5c48 -9.33301 86.833 -25.5 116.5 -48.5s56.167 -54.5 79.5 -94.5s46.166 -89.667 68.499 -149l83.5 -212l80 -209h-139zM361.004 782.997l293.001 0.000976562c48.667 0 97.167 4.16699 145.5 12.5s91.833 23.166 130.5 44.499
s70.167 50.166 94.5 86.499s36.5 82.5 36.5 138.5s-10 101.833 -30 137.5s-47.833 63.834 -83.5 84.501s-77.834 35 -126.501 43s-101.667 12 -159 12h-301v-559zM525.005 1648l-298 285h123l242 -285h-67zM803.005 1648l-294 285h120l243 -285h-69z" />
    <glyph glyph-name="uni0211" unicode="&#x211;" horiz-adv-x="737" 
d="M313 0h-123.997v788l-10 238h130l4 -248c10.667 48 26.167 89.167 46.5 123.5s43.5 62.5 69.5 84.5s55.333 38.167 88 48.5s68 15.833 106 16.5c19.333 0 36.166 -0.5 50.499 -1.5s26.166 -2.83301 35.499 -5.5l1 -114c-6 2.66699 -16.833 5.16699 -32.5 7.5
s-36.167 3.5 -61.5 3.5c-44 0 -84.333 -8.5 -121 -25.5s-68.167 -41.5 -94.5 -73.5s-47.333 -70.667 -63 -116s-23.834 -96 -24.501 -152v-574zM239.003 1218l-298 285h123l242 -285h-67zM517.003 1218l-294 285h120l243 -285h-69z" />
    <glyph glyph-name="uni0212" unicode="&#x212;" horiz-adv-x="1377" 
d="M1139 0l-151.996 415.997c-18 48.667 -36 89.167 -54 121.5s-39.333 58.166 -64 77.499s-54 33 -88 41s-76 12 -126 12h-298v-668h-130v1456h342c39.333 0 82.166 -0.666992 128.499 -2s92.833 -5.66602 139.5 -12.999s91.667 -18.5 135 -33.5s81.833 -36.333 115.5 -64
s60.667 -62.667 81 -105s30.5 -94.166 30.5 -155.499c0 -48.667 -8.33301 -93.167 -25 -133.5s-40.334 -75.666 -71.001 -105.999s-67.334 -55.666 -110.001 -75.999s-90 -34.833 -142 -43.5c-1.33301 -4 -2 -6.66699 -2 -8c0 -0.666992 0.166992 -1.16699 0.5 -1.5
s0.5 -0.833008 0.5 -1.5c48 -9.33301 86.833 -25.5 116.5 -48.5s56.167 -54.5 79.5 -94.5s46.166 -89.667 68.499 -149l83.5 -212l80 -209h-139zM361.004 782.997l293.001 0.000976562c48.667 0 97.167 4.16699 145.5 12.5s91.833 23.166 130.5 44.499
s70.167 50.166 94.5 86.499s36.5 82.5 36.5 138.5s-10 101.833 -30 137.5s-47.833 63.834 -83.5 84.501s-77.834 35 -126.501 43s-101.667 12 -159 12h-301v-559zM290.005 1692c3.33301 35.333 12.1699 66 26.5029 92s33.166 47.667 56.499 65s50.666 30.166 81.999 38.499
s65.666 12.5 102.999 12.5c77.333 0 139.5 -16.833 186.5 -50.5s73.167 -86.167 78.5 -157.5h-40c-4 24.667 -13 45.667 -27 63s-31.167 31.5 -51.5 42.5s-42.833 18.833 -67.5 23.5s-50 7 -76 7s-51.5 -2.66699 -76.5 -8s-47.833 -13.5 -68.5 -24.5
s-38.667 -25.167 -54 -42.5s-26 -37.666 -32 -60.999h-40z" />
    <glyph glyph-name="uni0213" unicode="&#x213;" horiz-adv-x="737" 
d="M313 0h-123.997v788l-10 238h130l4 -248c10.667 48 26.167 89.167 46.5 123.5s43.5 62.5 69.5 84.5s55.333 38.167 88 48.5s68 15.833 106 16.5c19.333 0 36.166 -0.5 50.499 -1.5s26.166 -2.83301 35.499 -5.5l1 -114c-6 2.66699 -16.833 5.16699 -32.5 7.5
s-36.167 3.5 -61.5 3.5c-44 0 -84.333 -8.5 -121 -25.5s-68.167 -41.5 -94.5 -73.5s-47.333 -70.667 -63 -116s-23.834 -96 -24.501 -152v-574zM141.003 1262c3.33301 35.333 12.1699 66 26.5029 92s33.166 47.667 56.499 65s50.666 30.166 81.999 38.499
s65.666 12.5 102.999 12.5c77.333 0 139.5 -16.833 186.5 -50.5s73.167 -86.167 78.5 -157.5h-40c-4 24.667 -13 45.667 -27 63s-31.167 31.5 -51.5 42.5s-42.833 18.833 -67.5 23.5s-50 7 -76 7s-51.5 -2.66699 -76.5 -8s-47.833 -13.5 -68.5 -24.5
s-38.667 -25.167 -54 -42.5s-26 -37.666 -32 -60.999h-40z" />
    <glyph glyph-name="uni0214" unicode="&#x214;" horiz-adv-x="1532" 
d="M1212 1456l126.001 0.00195312l-5 -908c-0.666992 -89.333 -12.834 -169.333 -36.501 -240s-59.167 -130.5 -106.5 -179.5s-106.5 -86.5 -177.5 -112.5s-153.833 -39 -248.5 -39c-91.333 0 -170.333 11.667 -237 35s-122.5 57.333 -167.5 102s-79.833 99 -104.5 163
s-40 137 -46 219c-0.666992 3.33301 -1 6.16602 -1 8.49902v8.5v19l6 924h125l-3 -913c0 -70.667 8.5 -133.834 25.5 -189.501s43.333 -103 79 -142s81.167 -68.833 136.5 -89.5s121 -31 197 -31c70.667 0 133 8.33301 187 25s99 42.667 135 78s63.167 81 81.5 137
s27.833 123.333 28.5 202zM602.001 1648l-298 285h123l242 -285h-67zM880.001 1648l-294 285h120l243 -285h-69z" />
    <glyph glyph-name="uni0215" unicode="&#x215;" horiz-adv-x="1217" 
d="M925 1026h124.002v-789c0 -10.667 0.333008 -35.667 1 -75s2 -93.333 4 -162h-129v203c-37.333 -78.667 -87.333 -136 -150 -172s-139 -54 -229 -54c-74 0 -134.833 12.667 -182.5 38s-85.334 58 -113.001 98s-46.834 84.833 -57.501 134.5s-16 99.167 -16 148.5v630h124
v-621c2 -54 7.33301 -101.5 16 -142.5s24.5 -75.333 47.5 -103s52.833 -48.667 89.5 -63s81.667 -21.5 135 -21.5c54 0 101.833 8.83301 143.5 26.5s76.667 42 105 73s50 67.5 65 109.5s22.5 87.667 22.5 137v12v593zM478.002 1218l-298 285h123l242 -285h-67zM756.002 1218
l-294 285h120l243 -285h-69z" />
    <glyph glyph-name="uni0216" unicode="&#x216;" horiz-adv-x="1532" 
d="M1212 1456l126.001 0.00195312l-5 -908c-0.666992 -89.333 -12.834 -169.333 -36.501 -240s-59.167 -130.5 -106.5 -179.5s-106.5 -86.5 -177.5 -112.5s-153.833 -39 -248.5 -39c-91.333 0 -170.333 11.667 -237 35s-122.5 57.333 -167.5 102s-79.833 99 -104.5 163
s-40 137 -46 219c-0.666992 3.33301 -1 6.16602 -1 8.49902v8.5v19l6 924h125l-3 -913c0 -70.667 8.5 -133.834 25.5 -189.501s43.333 -103 79 -142s81.167 -68.833 136.5 -89.5s121 -31 197 -31c70.667 0 133 8.33301 187 25s99 42.667 135 78s63.167 81 81.5 137
s27.833 123.333 28.5 202zM476.001 1692c3.33301 35.333 12.1699 66 26.5029 92s33.166 47.667 56.499 65s50.666 30.166 81.999 38.499s65.666 12.5 102.999 12.5c77.333 0 139.5 -16.833 186.5 -50.5s73.167 -86.167 78.5 -157.5h-40c-4 24.667 -13 45.667 -27 63
s-31.167 31.5 -51.5 42.5s-42.833 18.833 -67.5 23.5s-50 7 -76 7s-51.5 -2.66699 -76.5 -8s-47.833 -13.5 -68.5 -24.5s-38.667 -25.167 -54 -42.5s-26 -37.666 -32 -60.999h-40z" />
    <glyph glyph-name="uni0217" unicode="&#x217;" horiz-adv-x="1217" 
d="M925 1026h124.002v-789c0 -10.667 0.333008 -35.667 1 -75s2 -93.333 4 -162h-129v203c-37.333 -78.667 -87.333 -136 -150 -172s-139 -54 -229 -54c-74 0 -134.833 12.667 -182.5 38s-85.334 58 -113.001 98s-46.834 84.833 -57.501 134.5s-16 99.167 -16 148.5v630h124
v-621c2 -54 7.33301 -101.5 16 -142.5s24.5 -75.333 47.5 -103s52.833 -48.667 89.5 -63s81.667 -21.5 135 -21.5c54 0 101.833 8.83301 143.5 26.5s76.667 42 105 73s50 67.5 65 109.5s22.5 87.667 22.5 137v12v593zM375.002 1262c3.33301 35.333 12.1699 66 26.5029 92
s33.166 47.667 56.499 65s50.666 30.166 81.999 38.499s65.666 12.5 102.999 12.5c77.333 0 139.5 -16.833 186.5 -50.5s73.167 -86.167 78.5 -157.5h-40c-4 24.667 -13 45.667 -27 63s-31.167 31.5 -51.5 42.5s-42.833 18.833 -67.5 23.5s-50 7 -76 7
s-51.5 -2.66699 -76.5 -8s-47.833 -13.5 -68.5 -24.5s-38.667 -25.167 -54 -42.5s-26 -37.666 -32 -60.999h-40z" />
    <glyph glyph-name="uni0218" unicode="&#x218;" 
d="M207 250c32.667 -36.667 65.499 -65.498 98.499 -86.498s66 -36.833 99 -47.5s65.833 -17.5 98.5 -20.5s65 -4.5 97 -4.5c57.333 0 110 5.66699 158 17s89.167 28 123.5 50s61.166 49.333 80.499 82s29 70.667 29 114c0 49.333 -11.833 91.166 -35.5 125.499
s-55 64.166 -94 89.499s-83.167 47.666 -132.5 66.999l-152 57.5c-52 19 -102.667 39.667 -152 62s-93.5 49 -132.5 80s-70.333 68 -94 111s-35.5 95.167 -35.5 156.5c0 62.667 14.667 117.667 44 165s68.333 87 117 119s103.834 56 165.501 72s125.167 24 190.5 24
c32 0 65 -2.16699 99 -6.5s67.667 -11.5 101 -21.5s65.5 -23.5 96.5 -40.5s59.5 -38.167 85.5 -63.5l-49 -93c-46 40 -98.5 68.333 -157.5 85s-118.167 25 -177.5 25c-45.333 0 -90.333 -4.66699 -135 -14s-84.834 -24.333 -120.501 -45s-64.667 -47 -87 -79
s-33.5 -70.333 -33.5 -115c0 -47.333 11.833 -87.666 35.5 -120.999s55 -62.833 94 -88.5s83.333 -48.667 133 -69l152.5 -61.5c52 -20.667 102.833 -42.667 152.5 -66s94 -51.166 133 -83.499s70.333 -70.166 94 -113.499s35.5 -95.333 35.5 -156
c0 -46.667 -7.5 -88.5 -22.5 -125.5s-35.833 -69.5 -62.5 -97.5s-57.667 -51.833 -93 -71.5s-73.666 -35.834 -114.999 -48.501s-84.166 -21.834 -128.499 -27.501s-88.5 -8.5 -132.5 -8.5c-86 0 -165.833 16 -239.5 48s-135.5 80.333 -185.5 145zM592.999 -99.998h140
l-155 -441h-91z" />
    <glyph glyph-name="uni0219" unicode="&#x219;" horiz-adv-x="1007" 
d="M800 894c-29.333 18 -69.4971 32.0029 -120.497 42.0029s-106.833 15 -167.5 15c-35.333 0 -68 -3.83301 -98 -11.5s-55.833 -18.667 -77.5 -33s-38.5 -31.666 -50.5 -51.999s-18 -43.5 -18 -69.5c0 -33.333 4.83301 -59.666 14.5 -78.999s23.834 -35.166 42.501 -47.499
s41.667 -22.333 69 -30s58.666 -16 93.999 -25s74.333 -20.333 117 -34s88.667 -32.5 138 -56.5c18 -8.66699 36.667 -19.167 56 -31.5s37 -27.833 53 -46.5s29 -40.834 39 -66.501s15 -55.834 15 -90.501c0 -51.333 -11.833 -95.833 -35.5 -133.5s-54.834 -69 -93.501 -94
s-82.834 -43.5 -132.501 -55.5s-100.5 -18 -152.5 -18c-35.333 0 -70.166 1.83301 -104.499 5.5s-66.833 9.66699 -97.5 18s-58.834 19.166 -84.501 32.499s-47.167 29.666 -64.5 48.999l31 94c15.333 -17.333 34.666 -32.333 57.999 -45s48.833 -23.167 76.5 -31.5
s57 -14.5 88 -18.5s62.167 -6 93.5 -6c42 0 80.667 4 116 12s65.833 19.667 91.5 35s45.5 34.666 59.5 57.999s21 50.333 21 81c0 35.333 -8 64.666 -24 87.999s-38.333 43 -67 59s-62.334 29.833 -101.001 41.5l-127 36.5c-48.667 14.667 -92.5 30 -131.5 46
s-72.333 35 -100 57s-49 48.167 -64 78.5s-22.5 67.5 -22.5 111.5c0 46 10.5 86 31.5 120s48.833 62.333 83.5 85s73.834 39.5 117.501 50.5s88.5 16.5 134.5 16.5c66.667 0 128.167 -6 184.5 -18s102.5 -32 138.5 -60zM470.003 -99.9971h140l-155 -441h-91z" />
    <glyph glyph-name="uni021A" unicode="&#x21a;" horiz-adv-x="1174" 
d="M530 0v1342h-477v114h1088v-114h-476v-1342h-135zM536 -100h140l-155 -441h-91z" />
    <glyph glyph-name="uni021B" unicode="&#x21b;" horiz-adv-x="729" 
d="M271 944l-207 -0.000976562v82h207l1 288l123 34v-322h264v-82h-264v-641c0 -39.333 1 -73.666 3 -102.999s7.33301 -53.5 16 -72.5s23.834 -33.167 45.501 -42.5s52.5 -14 92.5 -14c48 0 84.667 6.33301 110 19v-85c-14.667 -10 -31.834 -17.167 -51.501 -21.5
s-42.167 -6.5 -67.5 -6.5c-55.333 0 -100.833 6 -136.5 18s-63.5 30.167 -83.5 54.5s-33.667 54.833 -41 91.5s-11 79.667 -11 129v674zM372 -100.001h140l-155 -441h-91z" />
    <glyph glyph-name="circumflex" unicode="&#x2c6;" horiz-adv-x="699" 
d="M143 1214l209 296h135l208 -296h-79l-199 240l-200 -240h-74z" />
    <glyph glyph-name="caron" unicode="&#x2c7;" horiz-adv-x="699" 
d="M638 1509l-218 -295h-134l-219 295h98l181 -240l191 240h101z" />
    <glyph glyph-name="breve" unicode="&#x2d8;" horiz-adv-x="629" 
d="M587 1470c-3.33301 -35.333 -12.1699 -66 -26.5029 -92s-33.166 -47.667 -56.499 -65s-50.666 -30.166 -81.999 -38.499s-65.666 -12.5 -102.999 -12.5c-77.333 0 -139.5 16.833 -186.5 50.5s-73.167 86.167 -78.5 157.5h40c4 -25.333 13 -46.5 27 -63.5
s31.167 -31 51.5 -42s42.833 -18.833 67.5 -23.5s50 -7 76 -7s51.5 2.66699 76.5 8s47.833 13.5 68.5 24.5s38.667 25.167 54 42.5s26 37.666 32 60.999h40z" />
    <glyph glyph-name="dotaccent" unicode="&#x2d9;" horiz-adv-x="524" 
d="M211 1293v128h114v-128h-114z" />
    <glyph glyph-name="ring" unicode="&#x2da;" horiz-adv-x="605" 
d="M570 1371c0 18 -4 35.168 -12 51.501s-19 31 -33 44s-30.5 23.333 -49.5 31s-39.5 11.5 -61.5 11.5c-19.333 0 -37.833 -3.83301 -55.5 -11.5s-33.334 -17.834 -47.001 -30.501s-24.667 -27.334 -33 -44.001s-12.5 -34 -12.5 -52c0 -41.333 13.833 -75.166 41.5 -101.499
s64.834 -39.5 111.501 -39.5c20 0 39 3.83301 57 11.5s34 18 48 31s25.167 28 33.5 45s12.5 34.833 12.5 53.5zM226 1370c0 25.333 5.16602 49.001 15.499 71.001s24.333 41 42 57s38.334 28.5 62.001 37.5s48.834 13.5 75.501 13.5s51.5 -4.5 74.5 -13.5
s43.167 -21.5 60.5 -37.5s31 -34.833 41 -56.5s15 -45.167 15 -70.5c0 -24.667 -5.16699 -48 -15.5 -70s-24.333 -41.333 -42 -58s-38.334 -29.834 -62.001 -39.501s-48.834 -14.5 -75.501 -14.5c-26 0 -50.667 4.5 -74 13.5s-43.666 21.5 -60.999 37.5s-31 35.167 -41 57.5
s-15 46.5 -15 72.5z" />
    <glyph glyph-name="ogonek" unicode="&#x2db;" horiz-adv-x="508" 
d="M299 -328c18 0 33.1699 0.331055 45.5029 0.998047s23.5 1.83398 33.5 3.50098s19 3.66699 27 6s16.667 5.16602 26 8.49902l2 -71c-8.66699 -3.33301 -19.334 -6.5 -32.001 -9.5s-26.334 -5.83301 -41.001 -8.5s-29.834 -4.66699 -45.501 -6s-30.5 -2 -44.5 -2
c-27.333 0 -53 3.5 -77 10.5s-45 17 -63 30s-32.167 29 -42.5 48s-15.5 40.833 -15.5 65.5s5.83301 47.834 17.5 69.501s27 41.834 46 60.501s41 36 66 52s50.5 31 76.5 45l103 19c-31.333 -18 -59.833 -36.333 -85.5 -55s-48 -37.167 -67 -55.5s-33.667 -36.5 -44 -54.5
s-15.5 -35.333 -15.5 -52s3.83301 -31.5 11.5 -44.5s17.5 -24 29.5 -33s25.833 -15.833 41.5 -20.5s31.5 -7 47.5 -7z" />
    <glyph glyph-name="tilde" unicode="&#x2dc;" horiz-adv-x="663" 
d="M688 1451l62.002 0.000976562c-2.66699 -26 -8.5 -50.5 -17.5 -73.5s-21 -42.833 -36 -59.5s-32.833 -29.834 -53.5 -39.501s-43.667 -14.5 -69 -14.5c-16 0 -34 3.66699 -54 11l-64 24.5c-22.667 9 -46.334 17.167 -71.001 24.5s-49 11 -73 11
c-34 0 -61 -7.16699 -81 -21.5s-31.667 -36.5 -35 -66.5h-58c5.33301 54.667 23.666 98.667 54.999 132s73 50 125 50c20 0 40 -3.83301 60 -11.5s40.5 -16 61.5 -25s42.833 -17.167 65.5 -24.5s46.334 -11 71.001 -11c30.667 0 56.167 7.66699 76.5 23s32.166 39 35.499 71
z" />
    <glyph glyph-name="hungarumlaut" unicode="&#x2dd;" horiz-adv-x="969" 
d="M479 1218l198 285h123l-254 -285h-67zM199 1218l199 285h120l-250 -285h-69z" />
    <glyph glyph-name="uni030F" unicode="&#x30f;" horiz-adv-x="969" 
d="M475 1218l-298 285h123l242 -285h-67zM753 1218l-294 285h120l243 -285h-69z" />
    <glyph glyph-name="uni0311" unicode="&#x311;" horiz-adv-x="629" 
d="M70 1262c3.33301 35.333 12.1699 66 26.5029 92s33.166 47.667 56.499 65s50.666 30.166 81.999 38.499s65.666 12.5 102.999 12.5c77.333 0 139.5 -16.833 186.5 -50.5s73.167 -86.167 78.5 -157.5h-40c-4 24.667 -13 45.667 -27 63s-31.167 31.5 -51.5 42.5
s-42.833 18.833 -67.5 23.5s-50 7 -76 7s-51.5 -2.66699 -76.5 -8s-47.833 -13.5 -68.5 -24.5s-38.667 -25.167 -54 -42.5s-26 -37.666 -32 -60.999h-40z" />
    <glyph glyph-name="uni0326" unicode="&#x326;" horiz-adv-x="540" 
d="M234 -100h140l-155 -441h-91z" />
    <glyph glyph-name="Omega" unicode="&#x3a9;" horiz-adv-x="1603" 
d="M140 103h360c-53.333 33.333 -102.333 73.166 -147 119.499s-83.334 98 -116.001 155s-58 119 -76 186s-27 137.833 -27 212.5c0 102.667 17.333 195.334 52 278.001s82.667 153.334 144 212.001s134 103.834 218 135.501s175.333 47.5 274 47.5
c102 0 193.833 -17.167 275.5 -51.5s151.167 -81.5 208.5 -141.5s101.333 -130.833 132 -212.5s46 -169.834 46 -264.501c0 -76 -10.833 -147.667 -32.5 -215s-50 -129.5 -85 -186.5s-74.667 -108.667 -119 -155s-88.833 -86.166 -133.5 -119.499h382v-103h-506l-1 96
c52.667 34.667 101.167 75.167 145.5 121.5s82.833 97.333 115.5 153s58.167 115.667 76.5 180s27.5 132.166 27.5 203.499c0 78.667 -11.5 153.5 -34.5 224.5s-57 133.5 -102 187.5s-101.333 97 -169 129s-145.834 48 -234.501 48c-81.333 0 -155.666 -14 -222.999 -42
s-125.166 -67.5 -173.499 -118.5s-85.833 -112.333 -112.5 -184s-40 -150.834 -40 -237.501c0 -71.333 8.66699 -139.5 26 -204.5s41.833 -125.833 73.5 -182.5s69.667 -108.5 114 -155.5s93.5 -87.833 147.5 -122.5v-96h-506z" />
    <glyph glyph-name="mu" unicode="&#x3bc;" horiz-adv-x="1217" 
d="M926 1026h120l-1 -789c0 -10 -0.166992 -20 -0.5 -30s-0.5 -20.667 -0.5 -32c0 -29.333 0.5 -58.833 1.5 -88.5s2.16699 -58.5 3.5 -86.5h-124l-1 203c-36 -78.667 -85.5 -136 -148.5 -172s-139.5 -54 -229.5 -54c-58.667 0 -108.667 7.66699 -150 23s-76 37 -104 65
l-1 -231h-117v1192h127l-4 -674c0 -93.333 24.667 -162.833 74 -208.5s122 -68.5 218 -68.5c54 0 101.833 8.83301 143.5 26.5s76.667 42 105 73s50 67.5 65 109.5s22.5 87.667 22.5 137v12z" />
    <glyph glyph-name="pi" unicode="&#x3c0;" horiz-adv-x="1468" 
d="M271 0v907h-121v120h1081v-120h-131v-907h-117v907h-594v-907h-118z" />
    <glyph glyph-name="endash" unicode="&#x2013;" horiz-adv-x="1085" 
d="M1089 508h-1080v102h1080v-102z" />
    <glyph glyph-name="emdash" unicode="&#x2014;" horiz-adv-x="2171" 
d="M2194 508h-2192v102h2192v-102z" />
    <glyph glyph-name="quoteleft" unicode="&#x2018;" horiz-adv-x="553" 
d="M295 1060h-135l147 419h88z" />
    <glyph glyph-name="quoteright" unicode="&#x2019;" horiz-adv-x="553" 
d="M274 1479h134l-146 -419h-89z" />
    <glyph glyph-name="quotesinglbase" unicode="&#x201a;" horiz-adv-x="553" 
d="M259 170h134l-147 -417h-87z" />
    <glyph glyph-name="quotedblleft" unicode="&#x201c;" horiz-adv-x="1024" 
d="M273 1060h-136l150 419h86zM564 1060h-158l168 419h89z" />
    <glyph glyph-name="quotedblright" unicode="&#x201d;" horiz-adv-x="1024" 
d="M270 1479h135l-145 -419h-90zM544 1479h136l-147 -419h-90z" />
    <glyph glyph-name="quotedblbase" unicode="&#x201e;" horiz-adv-x="1024" 
d="M311 170h135l-150 -417h-87zM681 170h137l-148 -417h-89z" />
    <glyph glyph-name="dagger" unicode="&#x2020;" horiz-adv-x="1022" 
d="M471 968h-341v98h336v401h115v-401h338v-98h-337v-852h-111v852z" />
    <glyph glyph-name="daggerdbl" unicode="&#x2021;" horiz-adv-x="1022" 
d="M454 1020h-328v98h357v349h119l-25 -349h338v-98h-335v-474h330v-95h-358v-335h-123v335h-311v95h336v474z" />
    <glyph glyph-name="bullet" unicode="&#x2022;" horiz-adv-x="989" 
d="M830 707c0 -42.667 -8.66699 -82.833 -26 -120.5s-41 -70.5 -71 -98.5s-65 -50.167 -105 -66.5s-82.333 -24.5 -127 -24.5c-44 0 -85.5 8 -124.5 24s-73.167 37.667 -102.5 65s-52.5 59.5 -69.5 96.5s-25.5 76.167 -25.5 117.5c0 42.667 8.83301 82.834 26.5 120.501
s41.667 70.5 72 98.5s65.5 50.167 105.5 66.5s82.333 24.5 127 24.5c44 0 85.333 -8 124 -24s72.5 -37.833 101.5 -65.5s52 -59.834 69 -96.501s25.5 -75.667 25.5 -117z" />
    <glyph glyph-name="ellipsis" unicode="&#x2026;" horiz-adv-x="1620" 
d="M360 -11h-172v179h173zM900 -11h-172v179h173zM1441 -11h-173v179h173v-179z" />
    <glyph glyph-name="perthousand" unicode="&#x2030;" horiz-adv-x="2386" 
d="M2010 589c-36.667 0 -68.832 -7.33301 -96.499 -22s-50.834 -34.334 -69.501 -59.001s-32.667 -53.167 -42 -85.5s-14 -66.166 -14 -101.499c0 -37.333 4.66699 -72.333 14 -105s23.5 -61.167 42.5 -85.5s42.667 -43.5 71 -57.5s61.833 -21 100.5 -21
c36.667 0 68.667 7.16699 96 21.5s50.333 33.833 69 58.5s32.667 53.167 42 85.5s14 66.5 14 102.5c0 37.333 -4.66699 72.333 -14 105s-23.333 61.167 -42 85.5s-42.334 43.5 -71 57.5c-28.667 14 -62 21 -100 21zM2009 -27c-51.333 0 -97.1689 8.33203 -137.502 24.999
s-74.166 40.167 -101.499 70.5s-48.166 66.666 -62.499 108.999s-21.5 89.5 -21.5 141.5c0 50.667 7.33301 97.334 22 140.001s36 79.5 64 110.5s62.5 55.333 103.5 73s87.5 26.5 139.5 26.5c52.667 0 99 -8.16699 139 -24.5s73.5 -39.5 100.5 -69.5s47.333 -66.667 61 -110
s20.5 -92 20.5 -146c0 -49.333 -7.33301 -95.166 -22 -137.499s-36 -79 -64 -110s-62.167 -55.167 -102.5 -72.5s-86.5 -26 -138.5 -26zM401.999 767.999c-51.333 0 -97.002 8.33105 -137.002 24.998s-73.667 40.334 -101 71.001s-48 67.167 -62 109.5s-21 89.5 -21 141.5
c0 50.667 7.16699 97.167 21.5 139.5s35.5 79 63.5 110s62.333 55.167 103 72.5s87.334 26 140.001 26s99 -8.33301 139 -25s73.333 -40.167 100 -70.5s46.834 -67 60.501 -110s20.5 -90.833 20.5 -143.5c0 -49.333 -7.33301 -95.166 -22 -137.499s-36 -79 -64 -110
s-62.167 -55.167 -102.5 -72.5s-86.5 -26 -138.5 -26zM1191 -27.0029c-51.333 0 -97 8.32812 -137 24.9951s-73.667 40.334 -101 71.001s-48 67.167 -62 109.5s-21 89.5 -21 141.5c0 50 7.16699 96.333 21.5 139s35.333 79.5 63 110.5s62 55.333 103 73
s88.167 26.5 141.5 26.5c52 0 97.833 -8.16699 137.5 -24.5s73.167 -39.666 100.5 -69.999s48 -67.166 62 -110.499s21 -91.666 21 -144.999c0 -49.333 -7.33301 -95.166 -22 -137.499s-36.167 -79 -64.5 -110s-62.833 -55.167 -103.5 -72.5s-87 -26 -139 -26zM1194 588.992
c-37.333 0 -70.166 -7.33301 -98.499 -22s-51.833 -34.334 -70.5 -59.001s-32.667 -53.167 -42 -85.5s-14 -66.166 -14 -101.499c0 -37.333 4.83301 -72.333 14.5 -105s24.167 -61.167 43.5 -85.5s43.333 -43.5 72 -57.5s62.334 -21 101.001 -21
c36.667 0 68.667 7.16699 96 21.5s50.166 33.833 68.499 58.5s32.166 53 41.499 85s14 66 14 102c0 38 -4.83301 73.5 -14.5 106.5s-24 61.5 -43 85.5s-42.5 43 -70.5 57s-60.667 21 -98 21zM404.997 1384.99c-37.333 0 -69.999 -7.33105 -97.999 -21.998
s-51.333 -34.334 -70 -59.001s-32.667 -53.167 -42 -85.5s-14 -66.166 -14 -101.499c0 -38 4.66699 -73.333 14 -106s23.5 -61.167 42.5 -85.5s42.833 -43.5 71.5 -57.5s62 -21 100 -21c36.667 0 69 7.16699 97 21.5s51.167 33.666 69.5 57.999s32.166 52.5 41.499 84.5
s14 66 14 102c0 38 -4.83301 73.5 -14.5 106.5s-24 61.667 -43 86s-42.5 43.666 -70.5 57.999s-60.667 21.5 -98 21.5zM271.998 -21.0059l951 1473h100l-951 -1473h-100z" />
    <glyph glyph-name="guilsinglleft" unicode="&#x2039;" horiz-adv-x="642" 
d="M402 911h109l-260 -370l251 -364h-106l-265 364z" />
    <glyph glyph-name="guilsinglright" unicode="&#x203a;" horiz-adv-x="642" 
d="M250 177h-108l260 365l-254 369h109l268 -369z" />
    <glyph glyph-name="fraction" unicode="&#x2044;" horiz-adv-x="368" 
d="M701 1452l-915 -1452h-98l917 1452h96z" />
    <glyph glyph-name="foursuperior" unicode="&#x2074;" horiz-adv-x="897" 
d="M384 639v196h-392v68l370 525h108v-522h117l6 -71h-125v-41v-114v-41h-84zM382 906l-1 437l-20.5 -33l-20.5 -33l-264 -371h306z" />
    <glyph glyph-name="Euro" unicode="&#x20ac;" horiz-adv-x="1190" 
d="M116 642l108 -0.00195312l-2.5 39c-1 15.333 -1.5 33.333 -1.5 54c0 22 1 47.667 3 77h-124l16 107h124c13.333 78 35.5 150.333 66.5 217s70.167 124.334 117.5 173.001s103 86.667 167 114s135.667 41 215 41c126 0 227.333 -35.333 304 -106l-22 -133
c-29.333 42 -69 73.333 -119 94s-108.333 31 -175 31c-60 0 -113.833 -11.833 -161.5 -35.5s-89 -55.167 -124 -94.5s-63.833 -85.166 -86.5 -137.499s-39 -106.833 -49 -163.5h614l-17 -107h-612c-2 -14 -3.66699 -29.667 -5 -47s-2 -33.333 -2 -48
c0 -20.667 1.16699 -36 3.5 -46s3.83301 -19.667 4.5 -29h594l-18 -107h-564c8 -65.333 21.5 -125.333 40.5 -180s45.167 -101.5 78.5 -140.5s74.333 -69.333 123 -91s106.667 -32.5 174 -32.5c114 0 215 34.333 303 103l-2 -125c-47.333 -32 -97.833 -55 -151.5 -69
s-109.5 -21 -167.5 -21c-80.667 0 -152 13.5 -214 40.5s-115 65 -159 114s-79.333 107.667 -106 176s-44.667 143.5 -54 225.5h-135z" />
    <glyph glyph-name="trademark" unicode="&#x2122;" horiz-adv-x="1869" 
d="M1009 1467l261 -598l281 598h151v-756h-93v688l-315 -688h-46l-302 690v-690h-97v756h160zM696 1467l-14 -67h-251v-689h-96v689h-255v67h616z" />
    <glyph glyph-name="partialdiff" unicode="&#x2202;" horiz-adv-x="1167" 
d="M504 77c60 0 114.667 14.5 164 43.5s92.5 69.5 129.5 121.5s67 113.667 90 185s37.833 149.333 44.5 234c-10 32.667 -24 63.667 -42 93s-40 54.666 -66 75.999s-56 38.333 -90 51s-72 19 -114 19c-54.667 0 -105.834 -13 -153.501 -39s-89.167 -61.167 -124.5 -105.5
s-63.166 -96 -83.499 -155s-30.5 -121.5 -30.5 -187.5c0 -50.667 6.5 -96.667 19.5 -138s31.5 -76.666 55.5 -105.999s53 -52 87 -68s72 -24 114 -24zM948 764c1.33301 17.333 2.49805 39.666 3.49805 66.999s1.5 54.333 1.5 81c0 84.667 -8.83301 160.334 -26.5 227.001
s-42.834 123 -75.501 169s-72.5 81 -119.5 105s-99.5 36 -157.5 36c-52 0 -100.5 -7.5 -145.5 -22.5s-82.833 -33.167 -113.5 -54.5l-7 95c38 23.333 82.167 43.333 132.5 60s104.833 25 163.5 25c72.667 0 138.334 -13.667 197.001 -41s108.667 -69 150 -125
s73 -127 95 -213s33 -188 33 -306c0 -73.333 -5.16699 -146.166 -15.5 -218.499s-26.166 -141.5 -47.499 -207.5s-48 -127.333 -80 -184s-69.5 -105.834 -112.5 -147.501s-91.667 -74.334 -146 -98.001s-114.166 -35.5 -179.499 -35.5c-66 0 -123.667 11.333 -173 34
s-90.5 53.667 -123.5 93s-57.667 85.666 -74 138.999s-24.5 111 -24.5 173c0 82.667 13 159.834 39 231.501s61.333 133.834 106 186.501s97.167 94 157.5 124s124.833 45 193.5 45c51.333 0 97 -7.5 137 -22.5s74.5 -34 103.5 -57s52.5 -48.667 70.5 -77
s30.667 -55.5 38 -81.5z" />
    <glyph glyph-name="uni2206" unicode="&#x2206;" horiz-adv-x="1320" 
d="M1278 0h-1216v68l529 1377h157l530 -1377v-68zM1115 131l-374 1008l-57 178h-21l-59 -178l-376 -1008h887z" />
    <glyph glyph-name="product" unicode="&#x220f;" horiz-adv-x="1568" 
d="M272 -341v1660h-121v120h1305v-120h-131v-1660h-117v1660h-818v-1660h-118z" />
    <glyph glyph-name="summation" unicode="&#x2211;" horiz-adv-x="1264" 
d="M893 564l-656 -789h990v-116h-1156l5 68l666 822l-644 810v80h1084v-111h-899l72 -90z" />
    <glyph glyph-name="minus" unicode="&#x2212;" horiz-adv-x="1458" 
d="M1257 684h-1038v105h1038v-105z" />
    <glyph glyph-name="radical" unicode="&#x221a;" horiz-adv-x="1314" 
d="M688 -78l60 261l387 1435h77l-475 -1777h-95l-346 877l-179 -28l-6 78l256 48l229 -618z" />
    <glyph glyph-name="integral" unicode="&#x222b;" horiz-adv-x="702" 
d="M273 1160c0 54 4.16309 103.667 12.4961 149s23.166 84.666 44.499 117.999s50.5 59.333 87.5 78s84.5 28 142.5 28c14.667 0 27.334 -0.5 38.001 -1.5s20.334 -2.16699 29.001 -3.5s17 -3.16602 25 -5.49902l26 -7.5l-1 -96c-8 2.66699 -19.167 5 -33.5 7
s-33.5 3 -57.5 3c-40 0 -72.5 -5.16699 -97.5 -15.5s-44.667 -25.833 -59 -46.5s-24 -46 -29 -76s-7.5 -64.667 -7.5 -104l-1 -1185c0 -54 -4.16699 -103.667 -12.5 -149s-23.166 -84.666 -44.499 -117.999s-50.5 -59.333 -87.5 -78s-84.5 -28 -142.5 -28
c-15.333 0 -28.166 0.5 -38.499 1.5s-19.666 2.16699 -27.999 3.5s-16.333 3.16602 -24 5.49902s-16.5 4.83301 -26.5 7.5l1 96c8 -2.66699 19 -5 33 -7s33 -3 57 -3c40 0 72.5 5.16699 97.5 15.5s44.667 25.833 59 46.5s24 46 29 76s7.5 64.667 7.5 104z" />
    <glyph glyph-name="approxequal" unicode="&#x2248;" horiz-adv-x="1351" 
d="M1123 521l66.002 -15.002c-6.66699 -35.333 -17.334 -67.5 -32.001 -96.5s-33.334 -53.833 -56.001 -74.5s-49.167 -36.5 -79.5 -47.5s-64.166 -16.5 -101.499 -16.5c-38.667 0 -78.667 8.16699 -120 24.5s-89.666 40.5 -144.999 72.5
c-36 22.667 -70.167 40.667 -102.5 54s-65.833 20 -100.5 20c-28 0 -52.833 -4 -74.5 -12s-40.834 -19.167 -57.501 -33.5s-30.834 -31.666 -42.501 -51.999s-21.5 -42.833 -29.5 -67.5l-69 15c16.667 74 49.167 131.667 97.5 173s109.5 62 183.5 62
c47.333 0 90.333 -8.5 129 -25.5s76.667 -36.833 114 -59.5c44.667 -27.333 84.334 -48.666 119.001 -63.999s70 -23 106 -23c50 0 90.167 14.5 120.5 43.5s55.166 69.833 74.499 122.5zM1120 908.998l66.002 -19c-6.66699 -34.667 -17.334 -66.334 -32.001 -95.001
s-33.334 -53.334 -56.001 -74.001s-49 -36.667 -79 -48s-64 -17 -102 -17c-39.333 0 -79.833 8.83301 -121.5 26.5s-89.834 42.167 -144.501 73.5c-37.333 21.333 -72 38.5 -104 51.5s-64 19.5 -96 19.5c-58 0 -103.5 -14.5 -136.5 -43.5s-56.833 -69.5 -71.5 -121.5l-67 18
c18 72.667 51.167 129.834 99.5 171.501s108.833 62.5 181.5 62.5c42 0 82.5 -8.16699 121.5 -24.5s80.5 -37.166 124.5 -62.499c24.667 -14.667 46.834 -27.167 66.501 -37.5s38.334 -19 56.001 -26s34.5 -12.167 50.5 -15.5s32.333 -5 49 -5c50 0 90.667 14 122 42
s55.666 69.333 72.999 124z" />
    <glyph glyph-name="notequal" unicode="&#x2260;" horiz-adv-x="1351" 
d="M719 756h-532l14 87h559l142 280l78 -12l-133 -268h332l-15 -87h-359l-172 -333h548l-15 -86h-575l-146 -285l-76 12l138 273h-318l14 86h344z" />
    <glyph glyph-name="lessequal" unicode="&#x2264;" horiz-adv-x="1351" 
d="M1180 9h-991l14 91h977v-91zM1136 241l-919 441v65l940 466l-17 -103l-789 -389v-14l802 -366z" />
    <glyph glyph-name="greaterequal" unicode="&#x2265;" horiz-adv-x="1351" 
d="M262 100h977l14 -91h-991v91zM289 341l804 366v14l-789 389l-17 103l935 -466l5 -65l-921 -441z" />
    <glyph glyph-name="lozenge" unicode="&#x25ca;" horiz-adv-x="1248" 
d="M1133 718l-467 -766h-78l-454 765l464 769h79zM233 722l304 -523l91 -163l90 163l314 518l-311 546l-83 149l-87 -149z" />
    <glyph glyph-name="fi" unicode="&#xfb01;" horiz-adv-x="1205" 
d="M397 1026l622.998 -0.000976562v-1026h-125v944h-496v-944h-127v944h-204v82h208l-2 134c0 5.33301 -0.166992 10.333 -0.5 15s-0.5 9.66699 -0.5 15c0 54 5.5 102.167 16.5 144.5s28.167 78.333 51.5 108s53.166 52.167 89.499 67.5s79.833 23 130.5 23
c14.667 0 27.334 -0.5 38.001 -1.5s20.334 -2.16699 29.001 -3.5s16.834 -3.16602 24.501 -5.49902s16.5 -4.83301 26.5 -7.5l-1 -96c-8 2.66699 -19.167 5 -33.5 7s-33.5 3 -57.5 3c-40 0 -72.667 -5.16699 -98 -15.5s-45 -25.833 -59 -46.5s-23.5 -46 -28.5 -76
s-7.5 -64.667 -7.5 -104zM1017 1478v-124h-115v124h115z" />
    <glyph glyph-name="fl" unicode="&#xfb02;" horiz-adv-x="1205" 
d="M399 0l-124.002 -0.000976562v944h-207v82h207v164c-1.33301 54 3.5 102.167 14.5 144.5s28.167 78.333 51.5 108s53.166 52.167 89.499 67.5s79.833 23 130.5 23c14.667 0 27.334 -0.5 38.001 -1.5s20.334 -2.16699 29.001 -3.5s16.834 -3.16602 24.501 -5.49902
s16.5 -4.83301 26.5 -7.5l-1 -96c-8 2.66699 -19.167 5 -33.5 7s-33.5 3 -57.5 3c-40 0 -72.667 -5.16699 -98 -15.5s-45 -25.833 -59 -46.5s-22.833 -46 -26.5 -76s-5.16699 -64.667 -4.5 -104v-161h255v-82h-255v-944zM1018 1508v-1508h-124v1508h124z" />
    <glyph glyph-name=".null" horiz-adv-x="0" 
 />
    <glyph glyph-name="periodcentered" horiz-adv-x="444" 
d="M184 523c-13.333 0 -26.3301 2.83301 -38.9971 8.5s-23.834 13.5 -33.501 23.5s-17.334 21.5 -23.001 34.5s-8.5 26.833 -8.5 41.5c0 28 8.5 51.333 25.5 70s37.833 28 62.5 28c14.667 0 28.5 -3 41.5 -9s24.5 -14 34.5 -24s18 -21.833 24 -35.5s9 -28.167 9 -43.5
c0 -26 -8.83301 -48.167 -26.5 -66.5s-39.834 -27.5 -66.501 -27.5z" />
    </font>
</defs>
</svg>
