<?xml version="1.0" standalone="no"?>
<!DOCTYPE svg PUBLIC "-//W3C//DTD SVG 1.1//EN" "http://www.w3.org/Graphics/SVG/1.1/DTD/svg11.dtd" >
<svg>
<metadata>
Created by FontForge 20090914 at Thu Feb 13 01:09:38 2014
 By www-data
Copyright (c) 2011 by vernon adams. All rights reserved.
</metadata>
<defs>
<font id="Muli" horiz-adv-x="1190" >
  <font-face 
    font-family="Muli"
    font-weight="400"
    font-style="italic"
    font-stretch="normal"
    units-per-em="2048"
    panose-1="2 0 5 3 4 0 0 2 0 4"
    ascent="1638"
    descent="-410"
    x-height="1026"
    cap-height="1456"
    bbox="-337 -625 2299 1960"
    underline-thickness="119"
    underline-position="-119"
    slope="-12"
    unicode-range="U+000D-U+FB02"
  />
<missing-glyph horiz-adv-x="599" 
 />
    <glyph glyph-name=".notdef" horiz-adv-x="599" 
 />
    <glyph glyph-name="uni000D" unicode="&#xd;" horiz-adv-x="0" 
 />
    <glyph glyph-name="space" unicode=" " horiz-adv-x="599" 
 />
    <glyph glyph-name="exclam" unicode="!" horiz-adv-x="737" 
d="M260 183h214v-206h-214v206zM426 373h-115l-40 1078h195z" />
    <glyph glyph-name="quotedbl" unicode="&#x22;" horiz-adv-x="720" 
d="M439 989l-36 462h184l-18 -462h-130zM150 989l-36 462h183l-16 -462h-131z" />
    <glyph glyph-name="numbersign" unicode="#" horiz-adv-x="1242" 
d="M1184 1010l-14 -124h-250l-51 -275h252l-14 -126h-260l-83 -425h-145l80 425h-261l-82 -425h-146l84 425h-252l11 126h265l24.5 137.5l25.5 137.5h-261l13 124h270l79 410h146l-77 -410h261l76 410h146l-78 -410h241zM775 886h-261l-54 -275h264z" />
    <glyph glyph-name="dollar" unicode="$" 
d="M534 1293c-31.333 -4 -59.667 -12.668 -85 -26.001s-47.166 -30.166 -65.499 -50.499s-32.5 -44 -42.5 -71s-15 -55.833 -15 -86.5c0 -34 5.16699 -63.5 15.5 -88.5s24.666 -46.833 42.999 -65.5s40 -35 65 -49s52.5 -26.667 82.5 -38zM250.999 222.999
c42.667 -28.667 88.165 -51.335 136.498 -68.002s96.166 -26 143.499 -28l3 521c-54 24 -105 47.833 -153 71.5s-90 50.334 -126 80.001s-64.667 64.334 -86 104.001s-32 87.5 -32 143.5c0 52.667 11.167 101.834 33.5 147.501s51.833 85.834 88.5 120.501
s78.834 62.667 126.501 84s97.167 34 148.5 38l-4 138h124l3 -136c66.667 -1.33301 129.334 -11.5 188.001 -30.5s109.334 -46.5 152.001 -82.5l-49 -128c-38 34 -81.667 58.833 -131 74.5s-102.333 24.5 -159 26.5l-2 -529c70 -27.333 131.333 -54 184 -80
s96.834 -54.5 132.501 -85.5s62.5 -66 80.5 -105s27 -85.167 27 -138.5c0 -55.333 -11.333 -105 -34 -149s-53.334 -81.667 -92.001 -113s-83.667 -56.333 -135 -75s-105.666 -30.334 -162.999 -35.001l3 -161h-123l-4 156c-60.667 1.33301 -118.334 10.166 -173.001 26.499
s-107 42.5 -157 78.5zM653.997 130.998c33.333 4.66699 65.002 13 95.002 25s56.167 27.5 78.5 46.5s40.166 41.5 53.499 67.5s20 55.333 20 88c0 31.333 -6 59 -18 83s-28.833 45.667 -50.5 65s-47.334 37 -77.001 53s-62.167 31.333 -97.5 46z" />
    <glyph glyph-name="percent" unicode="%" horiz-adv-x="1985" 
d="M1454 622c-37.333 0 -69.334 -7.66504 -96.001 -22.998s-48.667 -35.666 -66 -60.999s-30.166 -54.333 -38.499 -87s-12.5 -66.334 -12.5 -101.001c0 -36 4.16699 -70 12.5 -102s21.333 -60 39 -84s39.667 -43 66 -57s57.5 -21 93.5 -21s67.333 7.5 94 22.5
s48.5 35.167 65.5 60.5s29.667 54.166 38 86.499s12.5 66.166 12.5 101.499c0 36.667 -4.16699 71 -12.5 103s-21 60 -38 84s-38.5 43 -64.5 57s-57 21 -93 21zM1455 735.002c56 0 105.833 -9.50098 149.5 -28.501s80.5 -45.333 110.5 -79s52.667 -73.667 68 -120
s23 -96.833 23 -151.5c0 -53.333 -8.33301 -103.166 -25 -149.499s-40.5 -86.833 -71.5 -121.5s-68.5 -62 -112.5 -82s-93.333 -30 -148 -30c-55.333 0 -104.833 9.66699 -148.5 29s-80.5 46 -110.5 80s-53 74 -69 120s-24 95.667 -24 149c0 54 8.33301 104.333 25 151
s40.5 87.167 71.5 121.5s68.5 61.5 112.5 81.5s93.667 30 149 30zM525.999 1447c56 0 105.833 -9.50293 149.5 -28.5029s80.5 -45.333 110.5 -79s52.667 -73.667 68 -120s23 -96.833 23 -151.5c0 -53.333 -8.33301 -103.166 -25 -149.499s-40.5 -86.666 -71.5 -120.999
s-68.5 -61.5 -112.5 -81.5s-93.333 -30 -148 -30c-56 0 -105.833 9.66699 -149.5 29s-80.5 46 -110.5 80s-52.833 74 -68.5 120s-23.5 95.667 -23.5 149c0 54 8.33301 104.167 25 150.5s40.5 86.833 71.5 121.5s68.5 61.834 112.5 81.501s93.667 29.5 149 29.5zM1344 1436
h155l-905 -1441h-154zM524.999 1335c-36.667 0 -68.333 -7.49805 -95 -22.498s-48.834 -35 -66.501 -60s-30.667 -53.833 -39 -86.5s-12.5 -66.334 -12.5 -101.001c0 -36.667 4.33301 -71.167 13 -103.5s21.667 -60.5 39 -84.5s39.333 -43 66 -57s58 -21 94 -21
s67.167 7.5 93.5 22.5s48.166 35 65.499 60s30.166 53.667 38.499 86s12.5 66.166 12.5 101.499c0 36.667 -4.16699 71.167 -12.5 103.5s-21.166 60.5 -38.499 84.5s-39.166 43 -65.499 57s-57.166 21 -92.499 21z" />
    <glyph glyph-name="ampersand" unicode="&#x26;" horiz-adv-x="1647" 
d="M115 402c0 56 10.835 106.003 32.502 150.003s50.167 84 85.5 120s75.666 68.667 120.999 98s92 56.666 140 81.999l-15 15l-65.5 67c-21.667 22.667 -41 46.5 -58 71.5s-30.667 52 -41 81s-15.5 60.833 -15.5 95.5c0 48 9.5 90.167 28.5 126.5s45 66.666 78 90.999
s71.333 42.666 115 54.999s90.5 18.5 140.5 18.5c46.667 0 92.5 -5.66699 137.5 -17s85 -28.833 120 -52.5s63.333 -53.334 85 -89.001s32.5 -77.834 32.5 -126.501c0 -40 -8.5 -77.5 -25.5 -112.5s-39.667 -67.667 -68 -98s-61 -58.5 -98 -84.5s-75.5 -49.667 -115.5 -71
l410 -413c22.667 34.667 43.334 73.334 62.001 116.001s34.667 86.834 48 132.501s23.666 92.167 30.999 139.5s11 93.333 11 138c0 25.333 -1 45.333 -3 60l-5 37h173c4.66699 -62.667 3.5 -127 -3.5 -193s-19.167 -131 -36.5 -195s-39.5 -125.667 -66.5 -185
s-58.5 -114 -94.5 -164c30 -30.667 57.833 -57.167 83.5 -79.5s52.167 -41.666 79.5 -57.999s57 -30.166 89 -41.499s69 -21.333 111 -30l-132 -98c-31.333 4.66699 -59.833 12.167 -85.5 22.5s-50.834 23.666 -75.501 39.999s-49.667 35.666 -75 57.999l-84 77.5
c-30 -29.333 -62.667 -57 -98 -83s-73.833 -48.667 -115.5 -68s-86.667 -34.5 -135 -45.5s-100.5 -16.5 -156.5 -16.5c-78 0 -150.167 9.66699 -216.5 29s-124 47.333 -173 84s-87.333 81.5 -115 134.5s-41.5 113.5 -41.5 181.5zM1058 291.003
c-1.33301 0.666992 -8.83203 7.66699 -22.499 21l-53.5 53l-74.5 74l-84.5 84l-229 227c-38 -19.333 -75 -40 -111 -62s-68 -46.667 -96 -74s-50.333 -58.166 -67 -92.499s-25 -72.833 -25 -115.5c0 -42 9 -80.667 27 -116s43 -65.833 75 -91.5
s70.167 -45.834 114.5 -60.501s93.166 -22 146.499 -22c45.333 0 87 4.5 125 13.5s73.167 21.333 105.5 37s62.333 34.167 90 55.5s54.167 44.333 79.5 69zM625.003 918.003c30 16 59.498 33.334 88.498 52.001s54.667 38.667 77 60s40.333 44.166 54 68.499
s20.5 50.833 20.5 79.5s-5.83301 53.334 -17.5 74.001s-26.834 37.5 -45.501 50.5s-39.667 22.5 -63 28.5s-46.666 9 -69.999 9c-27.333 0 -52.833 -3.33301 -76.5 -10s-44.5 -16.834 -62.5 -30.501s-32.167 -30.667 -42.5 -51s-15.5 -43.833 -15.5 -70.5
c0 -25.333 3.66699 -49.333 11 -72s17.833 -44.5 31.5 -65.5s29.834 -41.5 48.501 -61.5s39.334 -40.333 62.001 -61z" />
    <glyph glyph-name="quotesingle" unicode="'" horiz-adv-x="554" 
d="M212 989l-36 462h184l-18 -462h-130z" />
    <glyph glyph-name="parenleft" unicode="(" horiz-adv-x="628" 
d="M433 -259c-38.667 59.333 -75 122.333 -109 189s-63.667 136 -89 208s-45.333 145.667 -60 221s-22 151.333 -22 228c0 80 6.66699 157.5 20 232.5s32 148.333 56 220s53 141.667 87 210s72 135.5 114 201.5h148c-84 -134 -148.667 -273 -194 -417s-68 -292 -68 -444
c0 -70 6.16699 -141.833 18.5 -215.5s30 -147 53 -220s50.667 -144.5 83 -214.5s68.5 -136.333 108.5 -199h-146z" />
    <glyph glyph-name="parenright" unicode=")" horiz-adv-x="628" 
d="M56 -259c38 60.667 72.835 124.833 104.502 192.5s59 137.667 82 210s40.833 147.166 53.5 224.499s19 156 19 236c0 66.667 -5.83301 136 -17.5 208s-28.667 144.333 -51 217s-49.833 144.667 -82.5 216s-70 140 -112 206h147
c39.333 -61.333 76.166 -125.833 110.499 -193.5s64 -137.667 89 -210s44.667 -146.166 59 -221.499s21.5 -151.333 21.5 -228c0 -80.667 -6.66699 -158.5 -20 -233.5s-32 -148 -56 -219s-52.833 -140.167 -86.5 -207.5s-70.834 -133 -111.501 -197h-149z" />
    <glyph glyph-name="asterisk" unicode="*" horiz-adv-x="1065" 
d="M581 1153l235 121l64 -125l-263 -88l201 -251l-126 -73l-158 266l-153 -258l-124 75l191 238l-273 78l21 135l284 -123l-20.5 151.5l-20.5 151.5h149z" />
    <glyph glyph-name="plus" unicode="+" horiz-adv-x="1458" 
d="M646 624l3 423h150l-2 -423h448l1 -139h-448l-3 -423h-151l2 423h-446l-2 139h448z" />
    <glyph glyph-name="comma" unicode="," horiz-adv-x="540" 
d="M185 207h187l-163 -463h-131z" />
    <glyph glyph-name="hyphen" unicode="-" horiz-adv-x="728" 
d="M80 489l-1 137h571l1 -137h-571z" />
    <glyph glyph-name="period" unicode="." horiz-adv-x="540" 
d="M376 -11h-217v210h217v-210z" />
    <glyph glyph-name="slash" unicode="/" horiz-adv-x="717" 
d="M-47 -215l637 1666h167l-641 -1666h-163z" />
    <glyph glyph-name="zero" unicode="0" 
d="M596 1453c94.667 0 174.168 -18.833 238.501 -56.5s116.166 -90.167 155.499 -157.5s67.333 -147.5 84 -240.5s25 -194.5 25 -304.5c0 -108 -11 -206.167 -33 -294.5s-54.667 -163.666 -98 -225.999s-96.833 -110.666 -160.5 -144.999s-137.5 -51.5 -221.5 -51.5
c-88.667 0 -164.5 18.167 -227.5 54.5s-114.5 87.166 -154.5 152.499s-69.333 143.166 -88 233.499s-28 189.5 -28 297.5c0 114 10.833 216.667 32.5 308s54 168.833 97 232.5s96 112.5 159 146.5s136.167 51 219.5 51zM592.001 1312
c-55.333 0 -103.332 -14.3301 -143.999 -42.9971s-74.5 -68.834 -101.5 -120.501s-47.167 -113.334 -60.5 -185.001s-20 -150.5 -20 -236.5c0 -46.667 1.66699 -94 5 -142s9.5 -94.5 18.5 -139.5s21.333 -87.333 37 -127s35.667 -74.334 60 -104.001s53.5 -53 87.5 -70
s74 -25.5 120 -25.5c54.667 0 102.167 14.167 142.5 42.5s73.666 67.833 99.999 118.5s46 111.167 59 181.5s19.5 147.5 19.5 231.5c0 45.333 -1.5 92 -4.5 140s-8.83301 95 -17.5 141s-20.5 89.5 -35.5 130.5s-34.5 76.833 -58.5 107.5s-53 55 -87 73s-74 27 -120 27z" />
    <glyph glyph-name="one" unicode="1" 
d="M273 1269c51.333 18 100.667 39.166 148 63.499s93.333 50.5 138 78.5l165 27v-1295h217v-143h-608v143h219v1102c-44.667 -25.333 -89.5 -48.666 -134.5 -69.999s-93.167 -42 -144.5 -62v156z" />
    <glyph glyph-name="two" unicode="2" 
d="M1035 0l-935.998 -0.00195312l-1 147l154 144l168 158.5l163 165.5c52.667 56 99.334 110.833 140.001 164.5s73.167 105.167 97.5 154.5s36.5 95 36.5 137c0 34.667 -6.66699 66.5 -20 95.5s-32.5 53.833 -57.5 74.5s-55 36.834 -90 48.501s-73.833 17.5 -116.5 17.5
c-38.667 0 -75.5 -5.33301 -110.5 -16s-67.167 -25.834 -96.5 -45.501s-55.5 -43.667 -78.5 -72s-42.167 -60.166 -57.5 -95.499l-97 97c16 42.667 38.5 80.834 67.5 114.501s63.167 62.334 102.5 86.001s82.666 41.667 129.999 54s97.666 18.5 150.999 18.5
c64.667 0 124.334 -8.66699 179.001 -26s102 -42 142 -74s71.167 -70.833 93.5 -116.5s33.5 -96.834 33.5 -153.501c0 -60 -14.833 -121 -44.5 -183s-69.334 -124.667 -119.001 -188s-107.334 -127.333 -173.001 -192l-206.5 -196l-91.5 -84.5l-92.5 -89.5h730v-145z" />
    <glyph glyph-name="three" unicode="3" 
d="M383 814c10 -0.666992 20.665 -1.00195 31.998 -1.00195h31c58.667 0 111.5 4.5 158.5 13.5s86.833 24.167 119.5 45.5s57.834 49.333 75.501 84s26.5 77.667 26.5 129c0 38 -7 70.833 -21 98.5s-33.5 50.5 -58.5 68.5s-54.833 31.5 -89.5 40.5
s-72.334 13.5 -113.001 13.5c-70.667 0 -133.667 -14.667 -189 -44s-100.666 -74 -135.999 -134l-98 89c14.667 36 36 68.333 64 97s60.833 53 98.5 73s79.167 35.333 124.5 46s92.666 16 141.999 16c58.667 0 115.667 -7.83301 171 -23.5s104.333 -38.834 147 -69.501
s77 -68.667 103 -114s39 -97.333 39 -156c0 -44 -7 -84.167 -21 -120.5s-33.667 -68.833 -59 -97.5s-55.666 -53.167 -90.999 -73.5s-74.666 -36.5 -117.999 -48.5l10 -2c46.667 -9.33301 89.5 -24 128.5 -44s72.5 -45 100.5 -75s49.833 -64.5 65.5 -103.5
s23.5 -82.5 23.5 -130.5c0 -64 -14.167 -121.667 -42.5 -173s-66.833 -94.833 -115.5 -130.5s-105 -63 -169 -82s-131.667 -28.5 -203 -28.5c-52 0 -100.833 5.16699 -146.5 15.5s-86.5 25.833 -122.5 46.5s-66.333 46.334 -91 77.001s-41.667 66.334 -51 107.001l83 101
c12.667 -33.333 30 -62.666 52 -87.999s47.667 -46.666 77 -63.999s61.666 -30.5 96.999 -39.5s72.333 -13.5 111 -13.5c48 0 92.833 6.33301 134.5 19s78 30.667 109 54s55.333 52 73 86s26.5 72.667 26.5 116c0 50 -9.5 92.667 -28.5 128s-46.167 64.166 -81.5 86.499
s-78.333 38.5 -129 48.5s-107.334 15 -170.001 15c-11.333 0 -24.166 -0.166992 -38.499 -0.5s-27.166 -0.833008 -38.499 -1.5z" />
    <glyph glyph-name="four" unicode="4" horiz-adv-x="1189" 
d="M726 0v351h-701v124l665 945h208v-937h214v-132h-214v-351h-172zM726 483v809l-88 -146l-442 -663h530z" />
    <glyph glyph-name="five" unicode="5" 
d="M228 289c40 -58 87.332 -100.832 141.999 -128.499s113.334 -41.5 176.001 -41.5c55.333 0 104.5 8.83301 147.5 26.5s79.167 41.667 108.5 72s51.5 65.666 66.5 105.999s22.5 83.166 22.5 128.499c0 42.667 -6.5 82.5 -19.5 119.5s-32 69.333 -57 97
s-56.167 49.5 -93.5 65.5s-80 24 -128 24c-46.667 0 -88.667 -8.66699 -126 -26s-66.666 -42 -87.999 -74l-176 -6v773h791v-145h-628l-14 -441c38 22 77.167 38.5 117.5 49.5s83.5 16.5 129.5 16.5c72.667 0 138 -11.5 196 -34.5s107.167 -54.833 147.5 -95.5
s71.333 -88.834 93 -144.501s32.5 -116.167 32.5 -181.5c0 -66.667 -12 -128.667 -36 -186s-58.333 -107.166 -103 -149.499s-99.167 -75.666 -163.5 -99.999s-136.833 -36.5 -217.5 -36.5c-40 0 -79.333 3.83301 -118 11.5s-75.334 19.5 -110.001 35.5
s-66.667 36.333 -96 61s-55 54 -77 88z" />
    <glyph glyph-name="six" unicode="6" 
d="M944 1201c-33.333 36 -72.499 63.498 -117.499 82.498s-95.5 28.5 -151.5 28.5c-46 0 -88 -7.66699 -126 -23s-72 -36.5 -102 -63.5s-56 -59.167 -78 -96.5s-40.167 -77.666 -54.5 -120.999s-25 -89.166 -32 -137.499s-10.5 -97.166 -10.5 -146.499
c18 32.667 39.833 61 65.5 85s54.5 43.833 86.5 59.5s66.667 27.167 104 34.5s76.333 11 117 11c68.667 0 131 -10.667 187 -32s103.667 -52 143 -92s69.666 -88.333 90.999 -145s32 -120.334 32 -191.001c0 -68 -11.5 -131 -34.5 -189s-55.5 -108.333 -97.5 -151
s-93 -76.167 -153 -100.5s-127 -36.5 -201 -36.5c-87.333 0 -163.5 17 -228.5 51s-119.167 81.833 -162.5 143.5s-75.666 135.5 -96.999 221.5s-32 181 -32 285c0 106 12.5 206 37.5 300s62 176.167 111 246.5s109.667 126 182 167s156.166 61.5 251.499 61.5
c72.667 0 137 -11.833 193 -35.5s100 -58.5 132 -104.5zM620.001 777.998c-40 0 -77.334 -5.16797 -112.001 -15.501s-66 -24.833 -94 -43.5s-52.333 -41 -73 -67s-37 -54.667 -49 -86c-0.666992 -12 -1.16699 -21.667 -1.5 -29s-0.5 -13.333 -0.5 -18v-11v-7
c0 -50 6.66699 -98 20 -144s33.5 -86.667 60.5 -122s60.833 -63.5 101.5 -84.5s88 -31.5 142 -31.5c46.667 0 88.834 8.33301 126.501 25s69.834 39.834 96.501 69.501s47.167 64.5 61.5 104.5s21.5 83.333 21.5 130s-6 90 -18 130s-30.5 74.833 -55.5 104.5
s-56.333 53 -94 70s-81.834 25.5 -132.501 25.5z" />
    <glyph glyph-name="seven" unicode="7" horiz-adv-x="1189" 
d="M1065 1420v-91l-586 -1329h-186l580 1275h-778v145h970z" />
    <glyph glyph-name="eight" unicode="8" 
d="M587 1453c64 0 123.834 -8.16699 179.501 -24.5s104.167 -40 145.5 -71s74 -69 98 -114s36 -95.833 36 -152.5c0 -84.667 -24.667 -156.167 -74 -214.5s-118.333 -101.5 -207 -129.5c102.667 -30.667 181 -78.834 235 -144.501s81 -144.167 81 -235.5
c0 -62.667 -13.5 -118.334 -40.5 -167.001s-63.333 -89.5 -109 -122.5s-98.334 -58 -158.001 -75s-121.834 -25.5 -186.501 -25.5c-65.333 0 -127.666 8.5 -186.999 25.5s-111.833 42 -157.5 75s-82 73.833 -109 122.5s-40.5 104.334 -40.5 167.001
c0 91.333 27 169.833 81 235.5s132.333 113.834 235 144.501c-88.667 28 -157.667 71.167 -207 129.5s-74 129.833 -74 214.5c0 56.667 12 107.5 36 152.5s56.667 83 98 114s89.833 54.667 145.5 71s115.5 24.5 179.5 24.5zM587.001 119c46 0 88.5 5.66699 127.5 17
s72.5 28 100.5 50s49.833 49.167 65.5 81.5s23.5 69.833 23.5 112.5c0 40 -7.83301 76.167 -23.5 108.5s-37.5 60.666 -65.5 84.999s-61.5 44.666 -100.5 60.999s-81.5 29.166 -127.5 38.499c-46 -9.33301 -88.5 -22.166 -127.5 -38.499s-72.5 -36.666 -100.5 -60.999
s-49.833 -52.666 -65.5 -84.999s-23.5 -68.5 -23.5 -108.5c0 -42.667 7.83301 -80.167 23.5 -112.5s37.5 -59.5 65.5 -81.5s61.5 -38.667 100.5 -50s81.5 -17 127.5 -17zM587.001 1317c-38.667 0 -75.334 -5 -110.001 -15s-65.167 -24.833 -91.5 -44.5
s-47.166 -43.834 -62.499 -72.501s-23 -61.667 -23 -99c0 -72.667 24.833 -130.834 74.5 -174.501s120.5 -74.167 212.5 -91.5c92 17.333 162.833 47.833 212.5 91.5s74.5 101.834 74.5 174.501c0 37.333 -7.66699 70.333 -23 99s-36.166 52.834 -62.499 72.501
s-56.833 34.5 -91.5 44.5s-71.334 15 -110.001 15z" />
    <glyph glyph-name="nine" unicode="9" 
d="M237 234c35.333 -38 76.3281 -66.668 122.995 -86.001s99 -29 157 -29c66.667 0 125 16 175 48s91.833 74.833 125.5 128.5s58.834 115.834 75.501 186.501s25 145 25 223v2c-38 -60 -88.833 -104 -152.5 -132s-137.167 -42 -220.5 -42
c-70 0 -133.167 11.167 -189.5 33.5s-104.333 53.333 -144 93s-70.167 87.167 -91.5 142.5s-32 116 -32 182s11.5 127.667 34.5 185s55.833 107 98.5 149s94.5 75 155.5 99s129.167 36 204.5 36c81.333 0 153.833 -15.167 217.5 -45.5s117.334 -75 161.001 -134
s76.834 -131.667 99.501 -218s34 -185.5 34 -297.5c0 -115.333 -12.667 -220.833 -38 -316.5s-62.666 -178 -111.999 -247s-110 -122.5 -182 -160.5s-154.333 -57 -247 -57c-72.667 0 -137.167 12.5 -193.5 37.5s-102.166 60.5 -137.499 106.5zM571.995 672.999
c40 0 77.501 5.33203 112.501 15.999s66.833 25.834 95.5 45.501s53.5 43 74.5 70s37.167 56.833 48.5 89.5c-0.666992 4.66699 -1 10.334 -1 17.001v18c0 46.667 -6.16699 92.834 -18.5 138.501s-31.833 86.667 -58.5 123s-60.834 65.666 -102.501 87.999
s-91.5 33.5 -149.5 33.5c-46.667 0 -89 -8.16699 -127 -24.5s-70.5 -39 -97.5 -68s-47.833 -63.167 -62.5 -102.5s-22 -82 -22 -128c0 -44.667 6.16699 -86.334 18.5 -125.001s31.166 -72.167 56.499 -100.5s57.333 -50.5 96 -66.5s84.334 -24 137.001 -24z" />
    <glyph glyph-name="colon" unicode=":" horiz-adv-x="540" 
d="M376 841h-217v210h217v-210zM376 -11h-217v210h217v-210z" />
    <glyph glyph-name="semicolon" unicode=";" horiz-adv-x="540" 
d="M206 207h188l-163 -463h-131zM376 841h-217v210h217v-210z" />
    <glyph glyph-name="less" unicode="&#x3c;" horiz-adv-x="1458" 
d="M438 552l784 -352l1 -152l-1005 460l1 87l1007 472l1 -153z" />
    <glyph glyph-name="equal" unicode="=" horiz-adv-x="1458" 
d="M1247 420v-137h-1049v137h1049zM1246 827v-138h-1049v138h1049z" />
    <glyph glyph-name="greater" unicode="&#x3e;" horiz-adv-x="1458" 
d="M1004 555l-784 371v152l1005 -484v-89l-1010 -447v154z" />
    <glyph glyph-name="question" unicode="?" horiz-adv-x="1032" 
d="M356 368c-2 20 -3.66504 40.001 -4.99805 60.001c-1.33301 17.333 -2.5 35.166 -3.5 53.499s-1.5 34.5 -1.5 48.5c0 40.667 9.5 78 28.5 112s42.667 66.333 71 97s59.166 60.5 92.499 89.5s64.166 58.833 92.499 89.5s52 62.834 71 96.501s28.5 70.5 28.5 110.5
c0 38 -8 70.333 -24 97s-37.333 48.5 -64 65.5s-57.167 29.333 -91.5 37s-69.833 11.5 -106.5 11.5c-46 0 -91 -5.83301 -135 -17.5s-86 -28.834 -126 -51.501v146c48 23.333 96.333 40 145 50s94 15 136 15c61.333 0 118.5 -7.16699 171.5 -21.5s99 -35.833 138 -64.5
s69.667 -64.5 92 -107.5s33.5 -93.5 33.5 -151.5c0 -42.667 -9.83301 -83 -29.5 -121s-44.167 -74.833 -73.5 -110.5s-61 -70 -95 -103s-65.667 -65.333 -95 -97s-53.833 -63.167 -73.5 -94.5s-29.5 -62.666 -29.5 -93.999c0 -15.333 0.833008 -31.333 2.5 -48
s3.5 -32.334 5.5 -47.001c2.66699 -17.333 5.66699 -34 9 -50h-164zM546.002 -10.999h-217v210h217v-210z" />
    <glyph glyph-name="at" unicode="@" horiz-adv-x="1895" 
d="M1225 1107l145.993 0.00292969l-57 -250l-64.5 -276c-16.333 -68.667 -24.166 -117.667 -23.499 -147c0 -24.667 6.16699 -44.834 18.5 -60.501s33.833 -23.5 64.5 -23.5c39.333 0 77 12.333 113 37s67.667 57.5 95 98.5s49.166 88.5 65.499 142.5s24.5 110 24.5 168
c0 82 -15.833 157.333 -47.5 226s-75.667 127.834 -132 177.501s-123.833 88.334 -202.5 116.001s-165 41.5 -259 41.5c-98.667 0 -189.834 -17.833 -273.501 -53.5s-156 -84.334 -217 -146.001s-108.667 -133.834 -143 -216.501s-51.5 -170.667 -51.5 -264
c0 -94.667 16.5 -182.5 49.5 -263.5s79.833 -151.333 140.5 -211s133.334 -106.334 218.001 -140.001s179 -50.5 283 -50.5c98 0 191.167 15.333 279.5 46s166.5 75.334 234.5 134.001l80 -70c-33.333 -36 -72.166 -68.167 -116.499 -96.5s-92.166 -52.5 -143.499 -72.5
s-105.666 -35.333 -162.999 -46s-116 -16 -176 -16c-121.333 0 -233.166 20 -335.499 60s-190.666 95.167 -264.999 165.5s-132.333 153.5 -174 249.5s-62.5 200.333 -62.5 313c0 74.667 9.83301 146.334 29.5 215.001s47.667 132.5 84 191.5s80 112.5 131 160.5
s107.667 89 170 123s129.333 60.333 201 79s146.834 28 225.501 28c73.333 0 143.833 -7.66699 211.5 -23s130.667 -37.333 189 -66s111.5 -63.334 159.5 -104.001s88.833 -86.334 122.5 -137.001s59.834 -105.834 78.501 -165.501s28 -122.834 28 -189.501
c0 -79.333 -13.667 -153.333 -41 -222s-63.166 -128.5 -107.499 -179.5s-94.833 -91.167 -151.5 -120.5s-114 -44 -172 -44c-58.667 0 -107 12.333 -145 37s-62 65.334 -72 122.001c-34.667 -42.667 -74.167 -74.5 -118.5 -95.5s-90.5 -31.5 -138.5 -31.5
c-40 0 -79 7.5 -117 22.5s-71.667 37.333 -101 67s-53 66.5 -71 110.5s-27 95 -27 153c0 45.333 6.16699 90 18.5 134s29.5 85.5 51.5 124.5s48 75 78 108s62.833 61.5 98.5 85.5s73.167 42.667 112.5 56s79.666 20 120.999 20c52 0 98.167 -10.333 138.5 -31
s70.5 -49 90.5 -85zM654.993 582.003c0 -29.333 3.83105 -56.001 11.498 -80.001s19 -44.667 34 -62s33.5 -30.833 55.5 -40.5s47 -14.5 75 -14.5c44 0 85 12.5 123 37.5s70.833 58 98.5 99s49.334 87.5 65.001 139.5s23.5 105.333 23.5 160c0 28 -2.83301 53.5 -8.5 76.5
s-15 42.667 -28 59s-29.667 28.833 -50 37.5s-45.166 13 -74.499 13c-47.333 0 -91 -13.167 -131 -39.5s-74.333 -60.166 -103 -101.499s-51 -87 -67 -137s-24 -99 -24 -147z" />
    <glyph glyph-name="A" unicode="A" horiz-adv-x="1425" 
d="M199 0h-186l604 1456h185l605 -1456h-191l-163 397h-698zM410 545l583.998 -0.000976562l-234 605c-5.33301 12.667 -11 27.5 -17 44.5l-17 48.5c-6.66699 18 -13 36.333 -19 55l-20 -61c-5.33301 -16.667 -11.166 -33.167 -17.499 -49.5
s-11.166 -29.166 -14.499 -38.499z" />
    <glyph glyph-name="B" unicode="B" horiz-adv-x="1352" 
d="M202 0v1456h290c54 0 106 -0.666992 156 -2s98 -4.66602 144 -9.99902c50.667 -6 97.5 -18.333 140.5 -37s80.167 -42.5 111.5 -71.5s55.833 -63 73.5 -102s26.5 -81.833 26.5 -128.5c0 -40 -6.5 -78 -19.5 -114s-31.167 -68.5 -54.5 -97.5s-51.333 -54.167 -84 -75.5
s-68.334 -37.666 -107.001 -48.999c1.33301 0 2.83301 -0.166992 4.5 -0.5s3.16699 -0.5 4.5 -0.5c48 -10 92 -25.167 132 -45.5s74.333 -46 103 -77s50.834 -66.667 66.501 -107s23.5 -85.5 23.5 -135.5c0 -53.333 -10.167 -104.333 -30.5 -153s-50.833 -91.5 -91.5 -128.5
s-91.167 -66.5 -151.5 -88.5s-130.5 -33 -210.5 -33h-527zM374 827.998l196 -0.00195312c48.667 0 96.5 3.83301 143.5 11.5s89 20.834 126 39.501s66.833 44 89.5 76s34 72.667 34 122c0 48.667 -9.83301 88.167 -29.5 118.5s-46.5 53.833 -80.5 70.5
s-74.167 27.834 -120.5 33.501s-96.5 8.5 -150.5 8.5h-208v-480zM374 679.996l0.000976562 -532h283c119.333 0 211.5 21 276.5 63s97.5 107 97.5 195c0 52.667 -9.33301 96.667 -28 132s-46.334 63.5 -83.001 84.5s-81.667 35.833 -135 44.5s-115 13 -185 13h-226z" />
    <glyph glyph-name="C" unicode="C" horiz-adv-x="1399" 
d="M1190 1219c-102 76.667 -220.999 115 -356.999 115c-61.333 0 -117.333 -8.16699 -168 -24.5s-96.167 -39 -136.5 -68s-75.333 -63.167 -105 -102.5s-54.334 -82 -74.001 -128s-34.334 -94.5 -44.001 -145.5s-14.5 -102.167 -14.5 -153.5
c0 -78.667 10.333 -153.5 31 -224.5s52.334 -133.333 95.001 -187s96.667 -96.334 162 -128.001s142.666 -47.5 231.999 -47.5c82 0 159.167 11.833 231.5 35.5s135.833 59.5 190.5 107.5l58 -141c-62 -50 -135.333 -87.5 -220 -112.5s-180 -37.5 -286 -37.5
c-110 0 -207 19.333 -291 58s-154.667 91.5 -212 158.5s-100.666 145 -129.999 234s-44 184.167 -44 285.5c0 68.667 7.16699 135.334 21.5 200.001s35.333 125.5 63 182.5s61.834 109.333 102.501 157s87.167 88.5 139.5 122.5s110.166 60.5 173.499 79.5
s132 28.5 206 28.5c90.667 0 171.667 -12.167 243 -36.5s137.333 -63.5 198 -117.5z" />
    <glyph glyph-name="D" unicode="D" horiz-adv-x="1546" 
d="M193 1456h315.003c86.667 0 169.667 -5 249 -15s153.166 -26.333 221.499 -49s130.333 -52.5 186 -89.5s103.167 -82.667 142.5 -137s69.666 -118 90.999 -191s32 -156.5 32 -250.5c0 -110.667 -18.5 -210.5 -55.5 -299.5s-90.667 -165 -161 -228
s-156.333 -111.5 -258 -145.5s-216.834 -51 -345.501 -51h-417v1456zM365.003 148l261 0.000976562c106 0 198 14.167 276 42.5s142.667 67.833 194 118.5s89.5 111.167 114.5 181.5s37.5 147.166 37.5 230.499c0 109.333 -15.333 201.5 -46 276.5
s-76.167 135.5 -136.5 181.5s-135.333 79 -225 99s-193.5 30 -311.5 30h-164v-1160z" />
    <glyph glyph-name="E" unicode="E" horiz-adv-x="1218" 
d="M1102 0h-897v1456h867v-148h-695v-488h657v-148h-657v-524h725v-148z" />
    <glyph glyph-name="F" unicode="F" horiz-adv-x="1137" 
d="M369 0h-172v1456h843v-148h-671v-493h637v-148h-637v-667z" />
    <glyph glyph-name="G" unicode="G" horiz-adv-x="1530" 
d="M1258 1196c-24.667 24 -52.166 44.6719 -82.499 62.0049s-62.666 31.666 -96.999 42.999s-70.333 19.666 -108 24.999s-75.834 8 -114.501 8c-92.667 0 -174.167 -17.333 -244.5 -52s-129 -80.834 -176 -138.501s-82.333 -123.667 -106 -198s-35.5 -151.5 -35.5 -231.5
c0 -87.333 11.667 -167.166 35 -239.499s58.666 -134.333 105.999 -186s106.5 -91.834 177.5 -120.501s154.5 -43 250.5 -43c56.667 0 111.667 4.66699 165 14s104 23.666 152 42.999v426h-361v149h533v-676c-80.667 -38 -163.167 -64.833 -247.5 -80.5
s-169.5 -23.5 -255.5 -23.5c-120 0 -225.667 17.333 -317 52s-167.833 83.667 -229.5 147s-108.167 139.5 -139.5 228.5s-47 187.833 -47 296.5c0 71.333 7.5 140.166 22.5 206.499s37 128.5 66 186.5s64.833 110.833 107.5 158.5s91.5 88.667 146.5 123
s116 60.833 183 79.5s139.833 28 218.5 28c48 0 94.667 -3.66699 140 -11s88 -18.5 128 -33.5s76.833 -34 110.5 -57s63.167 -49.833 88.5 -80.5z" />
    <glyph glyph-name="H" unicode="H" horiz-adv-x="1555" 
d="M374 0h-172v1456h172v-634h802v634h171v-1456h-171v674h-802v-674z" />
    <glyph glyph-name="I" unicode="I" horiz-adv-x="591" 
d="M382 0h-172v1456h172v-1456z" />
    <glyph glyph-name="J" unicode="J" horiz-adv-x="939" 
d="M122 197c29.333 -22.667 60.666 -40.333 93.999 -53s70 -19 110 -19c44 0 82.167 9.16699 114.5 27.5s59 43.833 80 76.5s36.667 71 47 115s15.5 92 15.5 144v968h172v-957c0 -84.667 -10 -159.5 -30 -224.5s-48.667 -119.5 -86 -163.5s-82.666 -77.333 -135.999 -100
s-114 -34 -182 -34c-52 0 -98.5 9.16699 -139.5 27.5s-77.833 43.833 -110.5 76.5z" />
    <glyph glyph-name="K" unicode="K" horiz-adv-x="1294" 
d="M382 0h-172v1456h172v-660l88 91l556 569h216l-689 -678l743 -778h-236l-594 634l-84 91v-725z" />
    <glyph glyph-name="L" unicode="L" horiz-adv-x="1120" 
d="M1073 0h-871v1456h172v-1308h697z" />
    <glyph glyph-name="M" unicode="M" horiz-adv-x="2002" 
d="M370 0h-170v1456h238l475 -1040l84 -204h2l85 207l478 1037h234v-1456h-168v934v317l-51 -121l-517 -1130h-126l-504 1108l-60 160v-337v-931z" />
    <glyph glyph-name="N" unicode="N" horiz-adv-x="1594" 
d="M193 0v1456h206l747 -1114l78 -127v233v1008h171v-1456h-208l-750 1113l-72 124v-190v-1047h-172z" />
    <glyph glyph-name="O" unicode="O" horiz-adv-x="1663" 
d="M1544 726c0 -110 -16.167 -210.833 -48.5 -302.5s-79.166 -170.667 -140.499 -237s-136.333 -117.833 -225 -154.5s-189 -55 -301 -55c-111.333 0 -211.166 17.667 -299.499 53s-163.333 85.666 -225 150.999s-108.834 144.333 -141.501 237s-49 196.334 -49 311.001
c0 109.333 16.333 210 49 302s80 171.5 142 238.5s137.667 119.333 227 157s191 56.5 305 56.5c108.667 0 206.667 -18 294 -54s161.666 -87 222.999 -153s108.333 -145.5 141 -238.5s49 -196.833 49 -311.5zM298 725c0 -84 11.168 -162.498 33.501 -235.498
s55.666 -136.5 99.999 -190.5s99.5 -96.5 165.5 -127.5s142.667 -46.5 230 -46.5c88 0 165.167 15.5 231.5 46.5s121.5 73.667 165.5 128s77 118.666 99 192.999s33 154.833 33 241.5c0 84.667 -10.833 163.667 -32.5 237s-54.5 137 -98.5 191s-98.833 96.333 -164.5 127
s-142.5 46 -230.5 46c-87.333 0 -164 -16.667 -230 -50s-121.5 -78 -166.5 -134s-78.833 -120.833 -101.5 -194.5s-34 -150.834 -34 -231.501z" />
    <glyph glyph-name="P" unicode="P" horiz-adv-x="1274" 
d="M375 0h-172v1456h341c56.667 0 112.167 -2.5 166.5 -7.5s105.833 -13.667 154.5 -26s93.5 -29 134.5 -50s76.333 -47.667 106 -80s52.834 -70.833 69.501 -115.5s25 -97 25 -157c0 -76 -16.5 -141.333 -49.5 -196s-77.333 -99.5 -133 -134.5
s-119.834 -60.833 -192.501 -77.5s-148.667 -25 -228 -25h-222v-587zM375 1308l-0.00292969 -572h261c54.667 0 105.334 5.5 152.001 16.5s86.834 28 120.501 51s60 52.167 79 87.5s28.5 77.666 28.5 126.999c0 58 -10.5 105.833 -31.5 143.5s-50.333 67.334 -88 89.001
s-82.667 36.667 -135 45s-110.166 12.5 -173.499 12.5h-213z" />
    <glyph glyph-name="Q" unicode="Q" horiz-adv-x="1664" 
d="M298 724c0 -83.333 11.1699 -161.331 33.5029 -233.998s55.666 -136 99.999 -190s99.5 -96.667 165.5 -128s142.667 -47 230 -47c88 0 165 15.5 231 46.5s121 73.667 165 128s77 118.666 99 192.999s33 154.833 33 241.5c0 84.667 -10.833 163.5 -32.5 236.5
s-54.334 136.5 -98.001 190.5s-98.334 96.333 -164.001 127s-142.5 46 -230.5 46c-87.333 0 -164.166 -16.667 -230.499 -50s-121.833 -78 -166.5 -134s-78.334 -120.833 -101.001 -194.5s-34 -150.834 -34 -231.501zM1601 -181.998
c-28 -3.33301 -56.666 -5.83203 -85.999 -7.49902s-56.666 -2.5 -81.999 -2.5c-93.333 0 -171.666 4.66699 -234.999 14s-117.333 22 -162 38s-82.834 34.5 -114.501 55.5s-62.5 43.167 -92.5 66.5c-107.333 0 -204.666 18 -291.999 54s-162 87.333 -224 154
s-109.833 147.167 -143.5 241.5s-50.5 199.5 -50.5 315.5c0 108 16.667 207.167 50 297.5s81.166 168 143.499 233s137.833 115.5 226.5 151.5s188 54 298 54c108.667 0 206.667 -18 294 -54s161.5 -86.833 222.5 -152.5s107.833 -144.167 140.5 -235.5s49 -192.333 49 -303
c0 -88 -10.833 -172.667 -32.5 -254s-54.334 -154.833 -98.001 -220.5s-97.834 -121.334 -162.501 -167.001s-140 -77.167 -226 -94.5c26.667 -10.667 58 -19.167 94 -25.5s72.667 -11 110 -14s73.833 -4.83301 109.5 -5.5s66.167 -1 91.5 -1c24.667 0 52 1.5 82 4.5
s59 6.83301 87 11.5z" />
    <glyph glyph-name="R" unicode="R" horiz-adv-x="1377" 
d="M377 652l-0.000976562 -651.999h-172v1456h356c39.333 0 82.5 -0.666992 129.5 -2s94.167 -5.66602 141.5 -12.999s93 -18.833 137 -34.5s83.167 -37.5 117.5 -65.5s61.666 -63.833 81.999 -107.5s30.5 -96.834 30.5 -159.501c0 -46 -7.33301 -88.333 -22 -127
s-35.667 -73.334 -63 -104.001s-60.166 -56.667 -98.499 -78s-80.833 -38 -127.5 -50h1c40.667 -13.333 74.167 -33 100.5 -59s50.166 -59.5 71.499 -100.5s42.333 -89.667 63 -146s46 -121.5 76 -195.5l87 -214h-188l-153 419c-16.667 45.333 -33.167 83 -49.5 113
s-35.666 53.833 -57.999 71.5s-48.666 30.167 -78.999 37.5s-67.833 11 -112.5 11h-270zM376.999 799.001l265.998 0.00195312c44.667 0 89.334 4 134.001 12s84.834 21.667 120.501 41s64.5 45.666 86.5 78.999s33 75.666 33 126.999c0 50 -9.16699 91.167 -27.5 123.5
s-43.833 57.833 -76.5 76.5s-71 31.667 -115 39s-92 11 -144 11h-277v-509z" />
    <glyph glyph-name="S" unicode="S" horiz-adv-x="1244" 
d="M215 271c22 -26.667 47.8369 -49.1641 77.5039 -67.4971s61 -33.333 94 -45s67 -20.167 102 -25.5s69.167 -8 102.5 -8c52.667 0 101 5.16699 145 15.5s81.833 25.666 113.5 45.999s56.334 45.333 74.001 75s26.5 64.167 26.5 103.5c0 44 -11.667 81.5 -35 112.5
s-53.833 58.5 -91.5 82.5s-80.834 45.5 -129.501 64.5l-148.5 58.5c-50.333 20 -99.833 41.5 -148.5 64.5s-91.834 50.333 -129.501 82s-68.167 69 -91.5 112s-35 94.167 -35 153.5c0 64 15 120.167 45 168.5s69.667 88.666 119 120.999s105.333 56.833 168 73.5
s127 25 193 25c38 0 77 -2.33301 117 -7s78.5 -13 115.5 -25s71.333 -27.833 103 -47.5s58.167 -44.5 79.5 -74.5l-83 -112c-20 22 -42.833 40.5 -68.5 55.5s-53 27 -82 36s-58.833 15.5 -89.5 19.5s-61 6 -91 6c-40.667 0 -81.334 -4.16699 -122.001 -12.5
s-77.334 -21.666 -110.001 -39.999s-59.334 -42 -80.001 -71s-31 -64.167 -31 -105.5c0 -42.667 11.667 -79.5 35 -110.5s54 -58.5 92 -82.5s81.167 -46 129.5 -66l148.5 -61c50.667 -20.667 100.167 -43 148.5 -67s91.5 -52.333 129.5 -85s68.667 -70.834 92 -114.501
s35 -95.167 35 -154.5c0 -47.333 -7.66699 -89.833 -23 -127.5s-36.333 -70.834 -63 -99.501s-58 -53.167 -94 -73.5s-74.833 -36.833 -116.5 -49.5s-85.167 -22 -130.5 -28s-90.333 -9 -135 -9c-48.667 0 -95 4.33301 -139 13s-84.667 21 -122 37s-70.833 35.333 -100.5 58
s-54.167 48 -73.5 76z" />
    <glyph glyph-name="T" unicode="T" horiz-adv-x="1174" 
d="M501 0v1308h-469v148h1113v-148h-472v-1308h-172z" />
    <glyph glyph-name="U" unicode="U" horiz-adv-x="1532" 
d="M191 1456l171.998 0.000976562v-910c0 -136 33.667 -240.167 101 -312.5s167 -108.5 299 -108.5c60.667 0 115.834 9.5 165.501 28.5s92 46.333 127 82s62 79.167 81 130.5s28.5 109 28.5 173v917h172l-1 -905c-0.666992 -90 -13.167 -170.667 -37.5 -242
s-60.666 -131.5 -108.999 -180.5s-108.666 -86.5 -180.999 -112.5s-156.5 -39 -252.5 -39c-104 0 -192 13.667 -264 41s-130.333 65.833 -175 115.5s-76.834 109.167 -96.501 178.5s-29.5 145.666 -29.5 228.999v915z" />
    <glyph glyph-name="V" unicode="V" horiz-adv-x="1336" 
d="M201 1456l423 -1149l46 -141l48 142l427 1148h179l-565 -1456h-189l-561 1456h192z" />
    <glyph glyph-name="W" unicode="W" horiz-adv-x="2103" 
d="M1115 1026l-63 221l-69 -221l-326 -1026h-213l-423 1456h186l310 -1107l38 -160l44 145l368 1122h181l359 -1111l46 -155l36 142l311 1124h180l-423 -1456h-212z" />
    <glyph glyph-name="X" unicode="X" horiz-adv-x="1304" 
d="M584 537l-369 -537h-204l537 741l-501 715h216l329 -497l70 -105l72 105l345 497h196l-511 -714l521 -742h-213l-362 538l-64 92z" />
    <glyph glyph-name="Y" unicode="Y" horiz-adv-x="1266" 
d="M543 0v582l-533 874h191l431 -729l435 729h191l-543 -871v-585h-172z" />
    <glyph glyph-name="Z" unicode="Z" horiz-adv-x="1222" 
d="M1146 0h-1088v92l864 1216h-832v148h1064v-88l-868 -1220h860v-148z" />
    <glyph glyph-name="bracketleft" unicode="[" horiz-adv-x="628" 
d="M548 -259h-357v1710h356v-122h-193v-1466h194v-122z" />
    <glyph glyph-name="backslash" unicode="\" horiz-adv-x="706" 
d="M617 -119l-687 1570h168l685 -1570h-166z" />
    <glyph glyph-name="bracketright" unicode="]" horiz-adv-x="628" 
d="M78 1451h364v-1710h-355v122h191v1466h-190z" />
    <glyph glyph-name="asciicircum" unicode="^" horiz-adv-x="1457" 
d="M184 550l481 882h101l489 -882h-155l-343 625l-43 85l-39 -84l-335 -626h-156z" />
    <glyph glyph-name="underscore" unicode="_" horiz-adv-x="998" 
d="M998 -273h-1002l-1 128h1002z" />
    <glyph glyph-name="grave" unicode="`" horiz-adv-x="593" 
d="M1 1492h214l247 -320h-129z" />
    <glyph glyph-name="a" unicode="a" horiz-adv-x="1244" 
d="M582 1051c42 0 80.333 -3.83594 115 -11.5029s66.667 -18.5 96 -32.5s56.333 -31.333 81 -52s47.667 -44 69 -70l6 141h163l-4 -253v-773h-165l2 144c-16 -21.333 -36.167 -42.166 -60.5 -62.499s-51.833 -38.166 -82.5 -53.499s-64.5 -27.666 -101.5 -36.999
s-75.833 -14 -116.5 -14c-57.333 0 -109.333 7.5 -156 22.5s-88.334 35.667 -125.001 62s-68.5 57.166 -95.5 92.499s-49.167 73.333 -66.5 114s-30.333 82.834 -39 126.501s-13 86.834 -13 129.501c0 66 10.167 130.667 30.5 194s51 119.666 92 168.999s92.333 89 154 119
s133.834 45 216.501 45zM601 108.997c46.667 0 90.5 9.50098 131.5 28.501s77 47 108 84s55.667 83 74 138s27.833 118.5 28.5 190.5c0 54 -8.16699 103.333 -24.5 148s-39.5 83.334 -69.5 116.001s-66.5 58 -109.5 76s-91.167 27 -144.5 27
c-40.667 0 -77.334 -5.5 -110.001 -16.5s-61.667 -26.167 -87 -45.5s-47.333 -42 -66 -68s-34 -53.833 -46 -83.5s-20.833 -60.5 -26.5 -92.5s-8.5 -63.667 -8.5 -95c0 -30.667 2.16699 -62.167 6.5 -94.5s11.5 -63.5 21.5 -93.5s23.667 -58.333 41 -85
s38.833 -49.834 64.5 -69.501s56.334 -35.334 92.001 -47.001s77.167 -17.5 124.5 -17.5z" />
    <glyph glyph-name="b" unicode="b" horiz-adv-x="1239" 
d="M318 0h-167.999c0.666992 45.333 1.66699 86.333 3 123c0.666992 16 1.16699 31.833 1.5 47.5s0.666016 30.167 0.999023 43.5s0.666016 25 0.999023 35s0.5 17 0.5 21v1222h165v-611c42 58 94.833 100.833 158.5 128.5s132.834 41.5 207.501 41.5
c79.333 0 147.333 -14.333 204 -43s103 -67 139 -115s62.5 -103.833 79.5 -167.5s25.5 -130.5 25.5 -200.5c0 -74.667 -9.83301 -145.167 -29.5 -211.5s-49 -124.5 -88 -174.5s-87.833 -89.5 -146.5 -118.5s-126.667 -43.5 -204 -43.5c-72.667 0 -138 13.5 -196 40.5
s-108 66.833 -150 119.5zM969.001 550c0 50.667 -7.33203 98.3301 -21.999 142.997s-35.834 83.5 -63.501 116.5s-61.167 59.167 -100.5 78.5s-83.666 29 -132.999 29c-54 0 -101.5 -10.833 -142.5 -32.5s-75.333 -51 -103 -88s-48.334 -79.833 -62.001 -128.5
s-20.5 -99.667 -20.5 -153c0 -58 5.5 -110.333 16.5 -157s29.333 -86.5 55 -119.5s59.167 -58.5 100.5 -76.5s92.333 -27 153 -27c60 0 110.667 11.833 152 35.5s74.5 54.834 99.5 93.501s43 82.834 54 132.501s16.5 100.834 16.5 153.501z" />
    <glyph glyph-name="c" unicode="c" horiz-adv-x="1046" 
d="M881 801c-32 40 -70.999 69.3311 -116.999 87.998s-95 28 -147 28c-55.333 0 -104.666 -10.667 -147.999 -32s-80.166 -50.5 -110.499 -87.5s-53.5 -80.333 -69.5 -130s-24 -102.834 -24 -159.501c0 -56 7 -108.333 21 -157s35.333 -91 64 -127s65 -64.167 109 -84.5
s96 -30.5 156 -30.5c112.667 0 213.667 38.667 303 116l46 -138c-48.667 -38.667 -103 -66.667 -163 -84s-126.333 -26 -199 -26c-84.667 0 -158.834 13.833 -222.501 41.5s-116.834 65.334 -159.501 113.001s-74.667 103.5 -96 167.5s-32 132 -32 204
c0 74.667 11.333 145.334 34 212.001s55.667 124.834 99 174.501s96.666 89 159.999 118s135.666 43.5 216.999 43.5c80.667 0 151.334 -12.667 212.001 -38s108 -60.333 142 -105z" />
    <glyph glyph-name="d" unicode="d" horiz-adv-x="1240" 
d="M915 0l-4.00195 147c-43.333 -61.333 -93.5 -105 -150.5 -131s-124.833 -39 -203.5 -39c-79.333 0 -148.166 13.833 -206.499 41.5s-106.5 65.5 -144.5 113.5s-66.333 104.167 -85 168.5s-28 132.833 -28 205.5c0 72 9.83301 140.833 29.5 206.5
s49.334 123.667 89.001 174s89 90.333 148 120s127.5 44.5 205.5 44.5c74 0 140.5 -14 199.5 -42s107.833 -68.333 146.5 -121v604h165v-1236c0.666992 -40 1.5 -83 2.5 -129s2.16699 -88.333 3.5 -127h-167zM582.998 109c54 0 101.501 10.502 142.501 31.502
s75.333 50.667 103 89s48.5 84.5 62.5 138.5s21 114 21 180c0 55.333 -7.5 105.666 -22.5 150.999s-36.5 84.166 -64.5 116.499s-61.667 57.333 -101 75s-83.333 26.5 -132 26.5c-56.667 0 -105.5 -11 -146.5 -33s-74.833 -51.667 -101.5 -89
s-46.334 -80.833 -59.001 -130.5s-19 -102.167 -19 -157.5c0 -52 5.5 -102 16.5 -150s29 -90.333 54 -127s57.667 -66 98 -88s89.833 -33 148.5 -33z" />
    <glyph glyph-name="e" unicode="e" horiz-adv-x="1173" 
d="M906 609l-1.00098 14c-3.33301 43.333 -11.833 83 -25.5 119s-32.5 67 -56.5 93s-53.167 46.167 -87.5 60.5s-73.166 21.5 -116.499 21.5c-46.667 0 -88.667 -8.16699 -126 -24.5s-69.5 -38.5 -96.5 -66.5s-48.833 -60.667 -65.5 -98s-28 -77 -34 -119h609zM1039 115
c-55.333 -48 -116.668 -82.999 -184.001 -104.999s-143.666 -33 -228.999 -33c-80.667 0 -152.667 13.167 -216 39.5s-116.833 63 -160.5 110s-77 103.167 -100 168.5s-34.5 137 -34.5 215c0 74 11.333 143.667 34 209s55.667 122.666 99 171.999s96.166 88.333 158.499 117
s133.5 43 213.5 43c78.667 0 147 -12.833 205 -38.5s105.667 -61 143 -106s65.166 -98.5 83.499 -160.5s27.5 -129.333 27.5 -202c0 -7.33301 -0.166992 -15.833 -0.5 -25.5s-0.833008 -18.5 -1.5 -26.5h-787l3 -45c4 -50 14.167 -95.667 30.5 -137s38.833 -77 67.5 -107
s63.5 -53.167 104.5 -69.5s87.833 -24.5 140.5 -24.5c70.667 0 135.334 12.333 194.001 37s111.334 60 158.001 106z" />
    <glyph glyph-name="f" unicode="f" horiz-adv-x="702" 
d="M411 0l-165.004 0.000976562v919h-200l-1 107h201l2 112c0.666992 54 6 104 16 150s26.333 85.667 49 119s52.834 59.5 90.501 78.5s84.834 28.5 141.501 28.5c14 0 26.667 -0.5 38 -1.5s22.166 -2.5 32.499 -4.5s20.833 -4.33301 31.5 -7s22 -5.33398 34 -8.00098
l2 -129c-13.333 5.33301 -30.166 9.16602 -50.499 11.499s-40.166 3.5 -59.499 3.5c-34 0 -61.5 -4.66699 -82.5 -14s-37.167 -23.166 -48.5 -41.499s-19.166 -41 -23.499 -68s-6.5 -58.167 -6.5 -93.5l-1 -136h247l1 -107h-248v-919z" />
    <glyph glyph-name="g" unicode="g" horiz-adv-x="1241" 
d="M201 -187c52.667 -32.667 107.999 -56.6689 165.999 -72.002s115 -23 171 -23c58.667 0 111.167 6.5 157.5 19.5s85.5 33 117.5 60s56.5 61.333 73.5 103s25.5 91.167 25.5 148.5v127c-40 -58.667 -90.5 -102.667 -151.5 -132s-127.833 -44 -200.5 -44
c-74 0 -140 12.333 -198 37s-107 59.334 -147 104.001s-70.667 98.334 -92 161.001s-32 132.334 -32 209.001c0 72.667 10 141.834 30 207.501s50 123 90 172s90.167 88 150.5 117s130.5 43.5 210.5 43.5c78 0 144.167 -14.167 198.5 -42.5s101.5 -69.5 141.5 -123.5
c0 11.333 0.333008 25.166 1 41.499s1.33398 31.833 2.00098 46.5c0.666992 17.333 1.66699 35 3 53h165c-1.33301 -32 -2.33301 -63.667 -3 -95c-1.33301 -26.667 -2.16602 -54.334 -2.49902 -83.001s-0.5 -53.667 -0.5 -75v-626c0 -45.333 -2.66699 -90.833 -8 -136.5
s-15 -89.5 -29 -131.5s-33.333 -81.333 -58 -118s-56.5 -68.5 -95.5 -95.5s-86.167 -48.333 -141.5 -64s-120.333 -23.5 -195 -23.5c-66.667 0 -130.834 6.66699 -192.501 20s-120.167 34 -175.5 62zM911.999 549.998c0 50.667 -7.33203 98.3301 -21.999 142.997
s-35.834 83.5 -63.501 116.5s-61.167 59.167 -100.5 78.5s-83.666 29 -132.999 29c-54 0 -101.5 -10.833 -142.5 -32.5s-75.333 -51 -103 -88s-48.334 -79.833 -62.001 -128.5s-20.5 -99.667 -20.5 -153c0 -58 5.5 -110.333 16.5 -157s29.333 -86.5 55 -119.5
s59.167 -58.5 100.5 -76.5s92.333 -27 153 -27c60 0 110.667 11.833 152 35.5s74.5 54.834 99.5 93.501s43 82.834 54 132.501s16.5 100.834 16.5 153.501z" />
    <glyph glyph-name="h" unicode="h" horiz-adv-x="1217" 
d="M334 1492l0.000976562 -602.005c42 56.667 91 97.667 147 123s122 38 198 38c74.667 0 136.167 -12.167 184.5 -36.5s86.666 -56.166 114.999 -95.499s48 -83.666 59 -132.999s16.5 -99.333 16.5 -150v-636h-165v626c0 42.667 -4.16699 81.834 -12.5 117.501
s-22.333 66.334 -42 92.001s-46 45.667 -79 60s-73.833 21.5 -122.5 21.5c-47.333 0 -89.5 -8.83301 -126.5 -26.5s-68.167 -41.667 -93.5 -72s-44.833 -65.666 -58.5 -105.999s-20.5 -82.833 -20.5 -127.5v-585h-165v1492h165z" />
    <glyph glyph-name="i" unicode="i" horiz-adv-x="503" 
d="M328 1462v-155h-153v155h153zM167 1026h165v-1026h-165v1026z" />
    <glyph glyph-name="j" unicode="j" horiz-adv-x="503" 
d="M327 1462v-155h-153v155h153zM-102 -273c18 -3.33301 33.8311 -5.83301 47.498 -7.5s25.834 -2.5 36.501 -2.5c64.667 0 113 25.167 145 75.5s48 129.833 48 238.5v995h165v-920c0.666992 -37.333 -0.166016 -76.5 -2.49902 -117.5s-7.16602 -81.333 -14.499 -121
s-18 -77.5 -32 -113.5s-32.833 -67.5 -56.5 -94.5s-53 -48.5 -88 -64.5s-76.833 -24 -125.5 -24c-38.667 0 -79.334 4.33301 -122.001 13z" />
    <glyph glyph-name="k" unicode="k" horiz-adv-x="1082" 
d="M343 1492v-905l466 439h225l-530 -484l284 -271l284 -271h-219l-510 501v-501h-165v1492h165z" />
    <glyph glyph-name="l" unicode="l" horiz-adv-x="503" 
d="M333 1492v-1492h-165v1492h165z" />
    <glyph glyph-name="m" unicode="m" horiz-adv-x="1901" 
d="M330 1026l4 -137.994c40 56 87.5 97.167 142.5 123.5s117.833 39.5 188.5 39.5c38.667 0 75.167 -4.83301 109.5 -14.5s65.666 -23.167 93.999 -40.5s53.166 -38.5 74.499 -63.5s38.333 -52.833 51 -83.5c38.667 70 88.334 121.167 149.001 153.5s135 48.5 223 48.5
c72.667 0 132.667 -11.833 180 -35.5s84.833 -54.834 112.5 -93.501s47 -82.834 58 -132.501s16.5 -100.834 16.5 -153.501v-636h-165v558c0 42.667 -2.5 85.334 -7.5 128.001s-16 81.167 -33 115.5s-42.167 62.166 -75.5 83.499s-78.333 32 -135 32
c-44.667 0 -84.5 -9.16699 -119.5 -27.5s-64.667 -42.833 -89 -73.5s-42.833 -65.834 -55.5 -105.501s-19 -80.834 -19 -123.501v-587h-165v635c0 38.667 -4.66699 75.167 -14 109.5s-24.166 64.166 -44.499 89.499s-46.5 45.5 -78.5 60.5s-70.667 22.5 -116 22.5
s-85.5 -8.83301 -120.5 -26.5s-64.5 -41.5 -88.5 -71.5s-42.167 -65 -54.5 -105s-18.5 -82.333 -18.5 -127v-587h-165v761c0 44 -0.5 88.667 -1.5 134s-2.5 89 -4.5 131h167z" />
    <glyph glyph-name="n" unicode="n" horiz-adv-x="1217" 
d="M333 0l-164.999 -0.00683594v779c0 30.667 -0.333008 60.834 -1 90.501s-1.33398 56.167 -2.00098 79.5c-1.33301 26.667 -2.33301 52.334 -3 77.001h167l4 -142c40 56.667 88.167 98.667 144.5 126s122.833 41 199.5 41c74.667 0 136.334 -12.333 185.001 -37
s87.167 -59.167 115.5 -103.5s48 -97.166 59 -158.499s16.5 -128.666 16.5 -201.999v-550h-165v531c0 58 -2.5 110.833 -7.5 158.5s-15.667 88.334 -32 122.001s-40.5 59.667 -72.5 78s-75 27.5 -129 27.5c-50 0 -94.333 -9.66699 -133 -29s-71.334 -42.666 -98.001 -69.999
s-47.167 -56.166 -61.5 -86.499s-21.5 -56.833 -21.5 -79.5v-652z" />
    <glyph glyph-name="o" unicode="o" horiz-adv-x="1238" 
d="M620 1051c86 0 161.497 -14 226.497 -42s119.167 -66.333 162.5 -115s76 -105.667 98 -171s33 -135.333 33 -210c0 -72 -11.5 -140.5 -34.5 -205.5s-56.667 -122 -101 -171s-99.166 -87.833 -164.499 -116.5s-140 -43 -224 -43c-85.333 0 -160.666 14 -225.999 42
s-120.166 66 -164.499 114s-78 104.5 -101 169.5s-34.5 134.5 -34.5 208.5s11.667 143.833 35 209.5s57.5 123 102.5 172s100.333 87.667 166 116s141.167 42.5 226.5 42.5zM965.997 511c0 54.667 -7.00098 106.667 -21.001 156s-35.333 92.5 -64 129.5s-65 66.333 -109 88
s-96 32.5 -156 32.5c-58 0 -109 -11.167 -153 -33.5s-80.833 -52.333 -110.5 -90s-52 -81.167 -67 -130.5s-22.5 -100.666 -22.5 -153.999s7.5 -104 22.5 -152s37.333 -90.5 67 -127.5s66.834 -66.333 111.501 -88s96.667 -32.5 156 -32.5c58.667 0 109.667 11 153 33
s79.333 51.5 108 88.5s50 79.667 64 128s21 99.166 21 152.499z" />
    <glyph glyph-name="p" unicode="p" horiz-adv-x="1239" 
d="M323 -427l-164 -0.00292969v1185c0 14 -0.166992 31.167 -0.5 51.5s-0.833008 42.5 -1.5 66.5s-1.5 48.833 -2.5 74.5s-2.16699 50.834 -3.5 75.501h167l5 -146c42 56.667 92.5 99.334 151.5 128.001s123.5 43 193.5 43c80.667 0 150.5 -14 209.5 -42
s107.833 -65.833 146.5 -113.5s67.5 -103.167 86.5 -166.5s28.5 -130.666 28.5 -201.999c0 -72 -9.83301 -141.167 -29.5 -207.5s-49 -124.833 -88 -175.5s-88 -91.167 -147 -121.5s-127.833 -45.5 -206.5 -45.5c-144 0 -259 52.667 -345 158v-562zM323 493.997
c0 -55.333 7.00098 -106.502 21.001 -153.502s34.5 -87.667 61.5 -122s60.5 -61.166 100.5 -80.499s86 -29 138 -29c56 0 104.167 11.333 144.5 34s73.333 53 99 91s44.667 81.833 57 131.5s18.5 101.5 18.5 155.5c0 50.667 -5.33301 99.834 -16 147.501
s-28.167 90 -52.5 127s-56.5 66.5 -96.5 88.5s-89.333 33 -148 33c-61.333 0 -112.833 -11.667 -154.5 -35s-75.334 -54.5 -101.001 -93.5s-44 -84 -55 -135s-16.5 -104.167 -16.5 -159.5z" />
    <glyph glyph-name="q" unicode="q" horiz-adv-x="1240" 
d="M913 148c-44 -58.667 -97.166 -101.832 -159.499 -129.499s-131.833 -41.5 -208.5 -41.5c-74.667 0 -140.167 13.667 -196.5 41s-103.5 64.833 -141.5 112.5s-66.5 103.667 -85.5 168s-28.5 133.5 -28.5 207.5c0 72.667 10 141.834 30 207.501s49.667 123.5 89 173.5
s88.666 89.833 147.999 119.5s128.333 44.5 207 44.5c74.667 0 141.5 -13.333 200.5 -40s107.5 -64.334 145.5 -113.001l5 128h167c-2.66699 -38.667 -4.5 -77.334 -5.5 -116.001s-1.5 -71 -1.5 -97v-1239h-165v574zM913.001 543.002
c0 54.667 -7.16699 104.997 -21.5 150.997s-35 85.5 -62 118.5s-60.5 58.667 -100.5 77s-85.333 27.5 -136 27.5c-56 0 -104.667 -10.833 -146 -32.5s-75.333 -51 -102 -88s-46.5 -80.5 -59.5 -130.5s-19.5 -103 -19.5 -159c0 -53.333 6 -104.166 18 -152.499
s30.667 -90.666 56 -126.999s58 -65.166 98 -86.499s88 -32 144 -32c64 0 117.167 12.5 159.5 37.5s76.333 58 102 99s43.667 87.333 54 139s15.5 104.5 15.5 158.5z" />
    <glyph glyph-name="r" unicode="r" horiz-adv-x="737" 
d="M332 0l-165.001 0.000976562v779c0 42 -0.666992 84 -2 126l-4 121h165l6 -155c28 56.667 66 100.667 114 132s101.333 47 160 47c38.667 0 74.667 -4 108 -12l2 -155c-14 7.33301 -31 13.166 -51 17.499s-41.333 6.5 -64 6.5c-40 0 -76.667 -7.83301 -110 -23.5
s-61.666 -38.167 -84.999 -67.5s-41.5 -65 -54.5 -107s-19.5 -89 -19.5 -141v-568z" />
    <glyph glyph-name="s" unicode="s" horiz-adv-x="1007" 
d="M790 847c-36 24.667 -79.3291 42.5029 -129.996 53.5029s-103.334 16.5 -158.001 16.5c-30.667 0 -59 -3.33301 -85 -10s-48.5 -16.167 -67.5 -28.5s-34 -27.333 -45 -45s-16.5 -37.5 -16.5 -59.5c0 -23.333 5.66699 -43.333 17 -60s26.666 -31.167 45.999 -43.5
s42 -23.333 68 -33s53.667 -18.834 83 -27.501l85.5 -25c30.333 -8.66699 60.5 -18.834 90.5 -30.501s58.667 -25.334 86 -41.001s51.5 -34.167 72.5 -55.5s37.667 -46.333 50 -75s18.5 -61.667 18.5 -99c0 -52 -12 -97.167 -36 -135.5s-55.667 -70.166 -95 -95.499
s-84.333 -44.333 -135 -57s-102.667 -19 -156 -19c-35.333 0 -70.333 2 -105 6s-67.834 10.667 -99.501 20s-61 21.333 -88 36s-50.167 33 -69.5 55l44 135c18 -21.333 39 -39.666 63 -54.999s49.833 -27.833 77.5 -37.5s56.167 -16.667 85.5 -21s58 -6.5 86 -6.5
c37.333 0 71.666 3.5 102.999 10.5s58.5 17.333 81.5 31s41 30.667 54 51s19.5 43.833 19.5 70.5c0 30.667 -7.33301 55.5 -22 74.5s-35 35.333 -61 49s-57 25.667 -93 36s-75 22.166 -117 35.499c-50 16 -95.167 32.833 -135.5 50.5s-74.5 38.167 -102.5 61.5
s-49.5 50.5 -64.5 81.5s-22.5 67.833 -22.5 110.5c0 47.333 10.833 88.666 32.5 123.999s50.167 64.5 85.5 87.5s75.5 40.167 120.5 51.5s90.833 17 137.5 17c68.667 0 132.167 -6.5 190.5 -19.5s107.833 -35.5 148.5 -67.5z" />
    <glyph glyph-name="t" unicode="t" horiz-adv-x="729" 
d="M243 919l-203 0.00195312v107h203l5 272l160 47v-319h256v-107h-256v-613c0 -22.667 0.666992 -45.834 2 -69.501s5.83301 -45.334 13.5 -65.001s19.5 -35.667 35.5 -48s38.667 -18.5 68 -18.5c21.333 0 43.666 2.83301 66.999 8.5s49 13.5 77 23.5l-1 -123
c-23.333 -13.333 -48.666 -22.833 -75.999 -28.5s-58.333 -8.5 -93 -8.5c-56 0 -100.833 9.5 -134.5 28.5s-59.667 44.5 -78 76.5s-30.5 69.333 -36.5 112s-9 87.667 -9 135v590z" />
    <glyph glyph-name="u" unicode="u" horiz-adv-x="1217" 
d="M878 1026l165.002 0.000976562v-780c0 -44 0.5 -85.5 1.5 -124.5s3.16699 -79.5 6.5 -121.5h-170l-3 135c-77.333 -105.333 -190 -158 -338 -158c-50.667 0 -95.334 5.83301 -134.001 17.5s-72.167 27.5 -100.5 47.5s-52 43.667 -71 71s-34.167 56.666 -45.5 87.999
s-19.5 63.833 -24.5 97.5s-7.5 67.167 -7.5 100.5v627h165v-627c-0.666992 -95.333 19.666 -167.5 60.999 -216.5s106.333 -73.5 195 -73.5c48 0 90.5 8.66699 127.5 26s68.333 41 94 71s45.167 64.833 58.5 104.5s20 81.5 20 125.5v590z" />
    <glyph glyph-name="v" unicode="v" horiz-adv-x="1063" 
d="M14 1026h182l281 -690c4.66699 -11.333 10.334 -26.5 17.001 -45.5s13 -38.167 19 -57.5c7.33301 -22 14.666 -45.333 21.999 -70c6.66699 24 13.667 47 21 69l18 57c6 19.333 11.667 35 17 47l276 690h177l-433 -1026h-168z" />
    <glyph glyph-name="w" unicode="w" horiz-adv-x="1695" 
d="M201 1026l249.002 -741.999c2.66699 -8 5.5 -17.5 8.5 -28.5s6.16699 -21.833 9.5 -32.5c3.33301 -12 7 -24.333 11 -37c4 10.667 7.66699 21.667 11 33c3.33301 9.33301 6.66602 19.166 9.99902 29.499s6.66602 19.5 9.99902 27.5l265 750h166l248 -740
c2.66699 -8 5.5 -17.5 8.5 -28.5s6.16699 -21.5 9.5 -31.5c3.33301 -12 7 -24.333 11 -37c4.66699 12 9 24 13 36l10.5 31.5l10.5 30.5l240 739h169l-368 -1026h-160l-281 831l-300 -831h-162l-365 1026h176z" />
    <glyph glyph-name="x" unicode="x" horiz-adv-x="1043" 
d="M420 514l-381 512h203l284 -412l293 412h179l-378 -508l391 -518h-201l-299 418l-301 -418h-190z" />
    <glyph glyph-name="y" unicode="y" horiz-adv-x="1069" 
d="M17 1026l181.001 0.000976562l332 -855l341 855h175l-454 -1098c-18 -44 -39.667 -85.667 -65 -125s-54.333 -74.5 -87 -105.5s-68.834 -57.333 -108.501 -79s-83.167 -36.834 -130.5 -45.501l-92 113c56 14.667 102.333 32.667 139 54s66.667 44 90 68
s41.5 48.833 54.5 74.5s23.833 50.5 32.5 74.5l17 49z" />
    <glyph glyph-name="z" unicode="z" horiz-adv-x="958" 
d="M58 89l600 802h-574v135h797v-87l-598 -805h613l2 -134h-840v89z" />
    <glyph glyph-name="braceleft" unicode="{" horiz-adv-x="627" 
d="M566 -259c-46.667 2 -89.665 8.16504 -128.998 18.498s-73.5 26.166 -102.5 47.499s-51.5 48.666 -67.5 81.999s-24 74 -24 122l1 263c0 30.667 -1 60.834 -3 90.501s-8 56.334 -18 80.001s-25.667 43.5 -47 59.5s-51.333 26 -90 30l-1 122
c29.333 2.66699 54.333 10.167 75 22.5s37.334 28.5 50.001 48.5s22 43.833 28 71.5s9 58.167 9 91.5c-1.33301 42 -2 84.167 -2 126.5s-0.666992 84.5 -2 126.5c0 48.667 5.66699 92 17 130s29.666 70.167 54.999 96.5s58.666 46.5 99.999 60.5s91.666 21 150.999 21v-126
c-26 -0.666992 -48.833 -3.83398 -68.5 -9.50098s-36 -15 -49 -28s-22.833 -30 -29.5 -51s-10 -47.5 -10 -79.5l-1 -289c0 -39.333 -4.66699 -74.166 -14 -104.499s-20.833 -56.666 -34.5 -78.999s-28.667 -40.833 -45 -55.5s-31.833 -26 -46.5 -34
c28.667 -13.333 51.834 -30.5 69.501 -51.5s31.5 -44 41.5 -69s16.833 -50.5 20.5 -76.5s5.5 -50.333 5.5 -73c0 -32.667 -0.333008 -68.667 -1 -108s-1 -76 -1 -110c0 -46.667 2.66699 -85.5 8 -116.5s14.166 -55.667 26.499 -74s29 -31.166 50 -38.499
s47.167 -11 78.5 -11v-126z" />
    <glyph glyph-name="bar" unicode="|" horiz-adv-x="500" 
d="M168 -491v2036h157v-2036h-157z" />
    <glyph glyph-name="braceright" unicode="}" horiz-adv-x="627" 
d="M66 -133c31.333 0 57.499 3.66895 78.499 11.002s37.667 20.166 50 38.499s21.166 43 26.499 74s8 69.833 8 116.5c0 34 -0.333008 70.667 -1 110s-1 75.333 -1 108c0 22.667 1.83301 47 5.5 73s10.5 51.5 20.5 76.5s23.833 48 41.5 69s40.834 38.167 69.501 51.5
c-14.667 8 -30.167 19.333 -46.5 34s-31.333 33.167 -45 55.5s-25.167 48.666 -34.5 78.999s-14 65.166 -14 104.499l-1 289c0 32 -3.33301 58.5 -10 79.5s-16.5 38 -29.5 51s-29.333 22.333 -49 28s-42.5 8.83398 -68.5 9.50098v126c59.333 0 109.5 -7 150.5 -21
s74.333 -34.167 100 -60.5s44.167 -58.5 55.5 -96.5s17 -81.333 17 -130c-1.33301 -42 -2 -84.167 -2 -126.5s-0.666992 -84.5 -2 -126.5c0 -33.333 3 -63.833 9 -91.5s15.333 -51.5 28 -71.5s29.334 -36.167 50.001 -48.5s45.667 -19.833 75 -22.5l-1 -122
c-38.667 -4 -68.667 -14 -90 -30s-37 -35.833 -47 -59.5s-16 -50.334 -18 -80.001s-3 -59.834 -3 -90.501l1 -263c0 -48 -8 -88.667 -24 -122s-38.5 -60.666 -67.5 -81.999s-63.167 -37.166 -102.5 -47.499s-82.333 -16.5 -129 -18.5v126z" />
    <glyph glyph-name="asciitilde" unicode="~" horiz-adv-x="1458" 
d="M491 705c25.333 0 52.167 -4.00586 80.5 -12.0059s57.166 -17.833 86.499 -29.5s58.333 -24.5 87 -38.5s56.167 -26.833 82.5 -38.5s50.5 -21.5 72.5 -29.5s41 -12 57 -12c22 0 42.333 5 61 15s35.5 23.333 50.5 40s27.833 35.667 38.5 57s18.667 43.333 24 66l125 -39
c-9.33301 -40 -22.666 -76.667 -39.999 -110s-38.666 -62.166 -63.999 -86.499s-54.5 -43.333 -87.5 -57s-69.167 -20.5 -108.5 -20.5c-20 0 -42.5 4 -67.5 12s-51 18 -78 30l-83.5 38.5l-84 38.5c-27.333 12 -53.833 22 -79.5 30s-48.834 12 -69.501 12
c-26 0 -49.333 -5.33301 -70 -16s-39 -24.667 -55 -42s-29.5 -37.166 -40.5 -59.499s-19.167 -45.166 -24.5 -68.499l-115 55c7.33301 34.667 19.333 67.834 36 99.501s37.667 59.834 63 84.501s55 44.334 89 59.001s72 22 114 22z" />
    <glyph glyph-name="nonbreakingspace" unicode="&#xa0;" horiz-adv-x="561" 
 />
    <glyph glyph-name="exclamdown" unicode="&#xa1;" horiz-adv-x="737" 
d="M260 1090h214v-206h-214v206zM466 -384h-195l40 1078h115z" />
    <glyph glyph-name="cent" unicode="&#xa2;" horiz-adv-x="1189" 
d="M959 801c-24 30 -52.498 53.998 -85.498 71.998s-68.5 30.667 -106.5 38l-50 -802c102.667 4.66699 195.667 43.334 279 116.001l46 -138c-46 -36 -96.333 -62.667 -151 -80s-115.334 -27 -182.001 -29l-14 -233h-129l14 240c-68 10 -127.667 30.5 -179 61.5
s-94 69.5 -128 115.5s-59.667 98.167 -77 156.5s-26 119.833 -26 184.5c0 72 10.5 140.333 31.5 205s51.667 121.5 92 170.5s90.166 88.833 149.499 119.5s127 48 203 52l13 211h130l-14 -217c58 -8.66699 108.833 -24.667 152.5 -48s79.167 -52.666 106.5 -87.999z
M343.002 507.998c0 -47.333 5 -92.165 15 -134.498s25 -80.333 45 -114s45.5 -62.334 76.5 -86.001s67.5 -40.834 109.5 -51.501l48 790c-46 -7.33301 -87.333 -22.833 -124 -46.5s-67.5 -53.5 -92.5 -89.5s-44.167 -76.833 -57.5 -122.5s-20 -94.167 -20 -145.5z" />
    <glyph glyph-name="sterling" unicode="&#xa3;" horiz-adv-x="1189" 
d="M1010 1237c-35.333 22 -76.3301 39.165 -122.997 51.498s-97 18.5 -151 18.5c-50.667 0 -93.334 -8.66699 -128.001 -26s-62.834 -41.666 -84.501 -72.999s-37.167 -69.166 -46.5 -113.499s-14 -93.5 -14 -147.5l3 -115h330l2 -142h-330
c0 -51.333 -0.5 -105.166 -1.5 -161.499s-4.5 -109.833 -10.5 -160.5s-15.667 -96.167 -29 -136.5s-32.333 -70.5 -57 -90.5h709l2 -141h-966l-1 138c22.667 13.333 45 28 67 44s41.667 35.5 59 58.5s31.166 50.667 41.499 83s15.5 71.166 15.5 116.499v250h-181l-2 142h182
c-2 52 -1.83301 103.167 0.5 153.5s8.66602 98.333 18.999 144s25.5 88 45.5 127s46.5 72.667 79.5 101s73.333 50.5 121 66.5s104.834 24 171.501 24c70.667 0 133.667 -7.83301 189 -23.5s102 -38.167 140 -67.5z" />
    <glyph glyph-name="currency" unicode="&#xa4;" horiz-adv-x="1246" 
d="M587 1051c40.667 0 81.999 -5.66699 123.999 -17l114 267l41 -16l-115 -267c65.333 -30.667 113.333 -74.667 144 -132s46 -123.333 46 -198c0 -36 -3.83301 -71.167 -11.5 -105.5s-18.667 -66.833 -33 -97.5s-32.333 -58.667 -54 -84s-46.5 -47 -74.5 -65l138 -280
l-35 -16l-137 276c-28.667 -13.333 -58.334 -23.666 -89.001 -30.999s-64 -11 -100 -11c-44 0 -80.333 4.33301 -109 13l-107 -247l-37 16l105 245c-67.333 26.667 -118.666 69.667 -153.999 129s-53 127.666 -53 204.999c0 40 4.33301 78.667 13 116
s21.334 72.166 38.001 104.499s37.5 61.333 62.5 87s54.167 46.834 87.5 63.501l-139 279l41 16l137 -278c44 18.667 96.333 28 157 28zM846.999 660v23c0 40.667 -5.33301 78.834 -16 114.501s-27 67 -49 94s-49.833 48.333 -83.5 64s-73.834 23.5 -120.501 23.5
c-48 0 -90.333 -9.5 -127 -28.5s-67.5 -44.333 -92.5 -76s-43.833 -67.834 -56.5 -108.501s-19 -83 -19 -127c0 -40 5.66699 -77.667 17 -113s28.333 -66.5 51 -93.5s50.834 -48.333 84.501 -64s73.167 -23.5 118.5 -23.5c46.667 0 87.667 8.66699 123 26
s65.333 40.5 90 69.5s43.667 62.5 57 100.5s21 77.667 23 119z" />
    <glyph glyph-name="yen" unicode="&#xa5;" horiz-adv-x="1189" 
d="M680 0h-172v283h-399l-11 140h408v151h-403v142h368l-445 704h205l289 -483l81 -141l85 140l287 484h186l-455 -704h364v-142h-391v-151h394v-140h-391v-283z" />
    <glyph glyph-name="brokenbar" unicode="&#xa6;" horiz-adv-x="500" 
d="M168 -491v884h157v-884h-157zM168 677v868h157v-868h-157z" />
    <glyph glyph-name="section" unicode="&#xa7;" horiz-adv-x="1097" 
d="M834 1304c-16 7.33301 -33.6641 14.1631 -52.9971 20.4961s-39.166 11.833 -59.499 16.5s-40.333 8.33398 -60 11.001s-37.5 4 -53.5 4c-30.667 0 -59 -2.5 -85 -7.5s-48.667 -12.833 -68 -23.5s-34.5 -24.667 -45.5 -42s-16.5 -38 -16.5 -62
c0 -20 3.5 -38.167 10.5 -54.5s18.833 -32.333 35.5 -48s39 -31.167 67 -46.5s63 -32 105 -50c40 -17.333 78.167 -35.166 114.5 -53.499s68.166 -38.833 95.499 -61.5s49.166 -47.834 65.499 -75.501s24.5 -59.167 24.5 -94.5c0 -28 -5.16699 -54.333 -15.5 -79
s-24 -47.667 -41 -69s-36.833 -41.166 -59.5 -59.499s-46 -34.833 -70 -49.5c24 -12 46 -25.333 66 -40s37.167 -31 51.5 -49s25.5 -38.5 33.5 -61.5s12 -48.833 12 -77.5c0 -48 -11.167 -90.667 -33.5 -128s-52.166 -68.833 -89.499 -94.5s-80.5 -45 -129.5 -58
s-100.167 -19.5 -153.5 -19.5c-46 0 -92 4.33301 -138 13s-90 21.667 -132 39l-2 149c49.333 -22.667 96.166 -39 140.499 -49s86.5 -15 126.5 -15c37.333 0 70.833 4 100.5 12s54.667 18.833 75 32.5s35.833 29.834 46.5 48.501s16 39 16 61s-4.66699 40.833 -14 56.5
s-23 29.834 -41 42.501s-40 25 -66 37s-55.667 25 -89 39l-84 36c-72 30.667 -129.333 68.334 -172 113.001s-64 98.667 -64 162c0 28.667 5.16699 55.167 15.5 79.5s24.166 46.833 41.499 67.5s37.333 39.167 60 55.5s46.667 30.833 72 43.5
c-24 14.667 -45.5 30.167 -64.5 46.5s-35 34.166 -48 53.499s-23 40.5 -30 63.5s-10.5 49.167 -10.5 78.5c0 46 10 86.333 30 121s47.333 63.5 82 86.5s75.167 40.167 121.5 51.5s95.833 17 148.5 17c42.667 0 81.667 -3.83301 117 -11.5s72.666 -17.5 111.999 -29.5z
M591.003 546.997c16 10 32.5 21.1689 49.5 33.502s32.333 25.666 46 39.999s24.834 30 33.501 47s13 35.5 13 55.5c0 21.333 -4.5 39.833 -13.5 55.5s-21.333 29.667 -37 42s-34.167 23.5 -55.5 33.5l-69 31l-23 9l-20.5 8.5c-7 3 -13.5 6.16699 -19.5 9.5
c-17.333 -9.33301 -33.833 -19.833 -49.5 -31.5s-29.834 -24.5 -42.501 -38.5s-22.667 -29.333 -30 -46s-11 -35 -11 -55c0 -24.667 5.5 -46 16.5 -64s26.667 -34.333 47 -49s44.5 -28.334 72.5 -41.001s59 -26 93 -40z" />
    <glyph glyph-name="dieresis" unicode="&#xa8;" horiz-adv-x="743" 
d="M285 1246h-163v163h164zM618 1246h-164v163h164v-163z" />
    <glyph glyph-name="copyright" unicode="&#xa9;" horiz-adv-x="1829" 
d="M1249 339c-86 -60 -188.999 -90 -308.999 -90c-70 0 -134.5 12.5 -193.5 37.5s-109.667 59.167 -152 102.5s-75.333 94.166 -99 152.499s-35.5 120.833 -35.5 187.5c0 69.333 11.667 133.333 35 192s56.5 109.167 99.5 151.5s94.667 75.5 155 99.5s127.5 36 201.5 36
c114.667 0 212.667 -34.333 294 -103l-31 -120c-73.333 63.333 -163.333 95 -270 95c-51.333 0 -97.333 -9 -138 -27s-75.334 -42.667 -104.001 -74s-50.667 -68.166 -66 -110.499s-23 -87.5 -23 -135.5c0 -49.333 7.66699 -95.333 23 -138s38 -80 68 -112
s67.333 -57.167 112 -75.5s96.667 -27.5 156 -27.5c44 0 86.167 6.33301 126.5 19s77.5 33 111.5 61zM230.001 727c0 -60.667 7.83008 -118.5 23.4971 -173.5s38.167 -106.333 67.5 -154s64.5 -90.834 105.5 -129.501s86.833 -71.667 137.5 -99s105.334 -48.5 164.001 -63.5
s120.334 -22.5 185.001 -22.5c96 0 185.167 16.5 267.5 49.5s153.833 78.167 214.5 135.5s108.334 124.833 143.001 202.5s52 161.5 52 251.5c0 60.667 -7.83301 118.5 -23.5 173.5s-38.167 106.333 -67.5 154s-64.5 90.834 -105.5 129.501s-86.667 71.667 -137 99
s-104.833 48.5 -163.5 63.5s-120 22.5 -184 22.5c-95.333 0 -184.333 -16.333 -267 -49s-154.5 -77.667 -215.5 -135s-109 -125 -144 -203s-52.5 -162 -52.5 -252zM913.998 -32c-74.667 0 -146.667 9.16504 -216 27.498s-134 44 -194 77s-114.667 72.667 -164 119
s-91.5 97.5 -126.5 153.5s-62.167 116.167 -81.5 180.5s-29 131.166 -29 200.499s9.66699 136 29 200s46.666 124 81.999 180s77.666 107.167 126.999 153.5s103.833 86 163.5 119s123.5 58.667 191.5 77s138.667 27.5 212 27.5c74.667 0 146.5 -9.16699 215.5 -27.5
s133.333 -44.166 193 -77.499s114.167 -73.166 163.5 -119.499s91.5 -97.666 126.5 -153.999s62.167 -116.5 81.5 -180.5s29 -130.333 29 -199c0 -69.333 -9.66699 -136 -29 -200s-46.5 -124 -81.5 -180s-77 -107.167 -126 -153.5s-103.167 -86 -162.5 -119
s-123.166 -58.667 -191.499 -77s-139.166 -27.5 -212.499 -27.5z" />
    <glyph glyph-name="ordfeminine" unicode="&#xaa;" horiz-adv-x="745" 
d="M317 768c-36 0 -69.334 4.83594 -100.001 14.5029s-57.167 23.5 -79.5 41.5s-39.833 39.833 -52.5 65.5s-19 54.167 -19 85.5c0 28.667 6 55.167 18 79.5s28.833 45.666 50.5 63.999s47.334 33.833 77.001 46.5s62.167 21.667 97.5 27c38 6 76.333 9.5 115 10.5
s76 3.83301 112 8.5v8c0 28.667 -2.5 52.667 -7.5 72s-13.333 34.666 -25 45.999s-26.834 19.5 -45.501 24.5s-42 7.5 -70 7.5c-20 0 -40 -1.33301 -60 -4s-39 -7.5 -57 -14.5s-34.833 -16.667 -50.5 -29s-29.834 -27.833 -42.501 -46.5l-67 75
c26.667 45.333 64.834 77.833 114.501 97.5s105.834 29.5 168.501 29.5c86 0 153.333 -19.667 202 -59s73 -97.333 73 -174v-9l-2 -321c-0.666992 -7.33301 -0.666992 -17.833 0 -31.5s1.66699 -27.834 3 -42.501l4 -54h-131l-6 74c-22.667 -28 -52.5 -50.333 -89.5 -67
s-80.5 -25 -130.5 -25zM337.999 871.003c34 0 63.5 5.83203 88.5 17.499s46 27.5 63 47.5s29.833 42.833 38.5 68.5s13.667 52.5 15 80.5l-4 25c-23.333 -4.66699 -47.833 -8.16699 -73.5 -10.5s-51 -4.83301 -76 -7.5s-48.833 -6.16699 -71.5 -10.5
s-42.667 -10.666 -60 -18.999s-31 -19.333 -41 -33s-15 -31.167 -15 -52.5c0 -37.333 12.667 -64.333 38 -81s58 -25 98 -25z" />
    <glyph glyph-name="guillemotleft" unicode="&#xab;" horiz-adv-x="1156" 
d="M521 914h160l-265 -373l256 -370h-157l-269 370zM890 914h159l-263 -373l256 -370h-157l-269 370z" />
    <glyph glyph-name="logicalnot" unicode="&#xac;" horiz-adv-x="1458" 
d="M1098 238v421h-898v139h1048v-560h-150z" />
    <glyph glyph-name="registered" unicode="&#xae;" horiz-adv-x="1829" 
d="M745 664l-0.00292969 -390.999h-148v919h273c146 0 254.333 -22.167 325 -66.5s106 -107.833 106 -190.5c0 -30.667 -5.16699 -60 -15.5 -88s-26.166 -53.333 -47.499 -76s-48.833 -41.834 -82.5 -57.501s-73.5 -26.5 -119.5 -32.5
c18.667 -17.333 37.5 -37.833 56.5 -61.5s38.333 -49.5 58 -77.5s39.334 -57.667 59.001 -89l59.5 -96l51 -84h-168l-123 212c-25.333 44 -50.166 81 -74.499 111s-48.5 52.667 -72.5 68h-137zM742.997 783.001l125 -0.000976562c42.667 0 81.167 1.33301 115.5 4
s63.5 8.83398 87.5 18.501s42.5 23.5 55.5 41.5s19.5 42.333 19.5 73c0 33.333 -5.16699 60 -15.5 80s-26.833 35.333 -49.5 46s-52.167 17.667 -88.5 21s-80.5 5 -132.5 5h-118zM912.997 85c64 0 125.164 7.50195 183.497 22.502s112.5 36.167 162.5 63.5
s95.5 60.333 136.5 99s75.833 81.667 104.5 129s50.834 98.333 66.501 153s23.5 112 23.5 172c0 60.667 -7.83301 118.5 -23.5 173.5s-38.167 106.333 -67.5 154s-64.5 90.834 -105.5 129.501s-86.667 71.667 -137 99s-104.833 48.5 -163.5 63.5s-120 22.5 -184 22.5
c-95.333 0 -184.333 -16.333 -267 -49s-154.5 -77.834 -215.5 -135.501s-109 -125.334 -144 -203.001s-52.5 -161.5 -52.5 -251.5c0 -60.667 7.83301 -118.5 23.5 -173.5s38.167 -106.333 67.5 -154s64.5 -90.834 105.5 -129.501s86.833 -71.667 137.5 -99
s105.334 -48.5 164.001 -63.5s120.334 -22.5 185.001 -22.5zM913.994 -31.998c-74.667 0 -146.667 9.16504 -216 27.498s-134 44 -194 77s-114.667 72.667 -164 119s-91.5 97.5 -126.5 153.5s-62.167 116.167 -81.5 180.5s-29 131.166 -29 200.499s9.66699 136 29 200
s46.666 124 81.999 180s77.666 107.167 126.999 153.5s103.833 86 163.5 119s123.5 58.667 191.5 77s138.667 27.5 212 27.5c74.667 0 146.5 -9.16699 215.5 -27.5s133.333 -44.166 193 -77.499s114.167 -73.166 163.5 -119.499s91.5 -97.666 126.5 -153.999
s62.167 -116.5 81.5 -180.5s29 -130.333 29 -199c0 -69.333 -9.66699 -136 -29 -200s-46.5 -124 -81.5 -180s-77 -107.167 -126 -153.5s-103.167 -86 -162.5 -119s-123.166 -58.667 -191.499 -77s-139.166 -27.5 -212.499 -27.5z" />
    <glyph glyph-name="uni00AF" unicode="&#xaf;" horiz-adv-x="850" 
d="M853 1380h-856v130h856v-130z" />
    <glyph glyph-name="degree" unicode="&#xb0;" horiz-adv-x="844" 
d="M414 1328c-26 0 -50.832 -4.5 -74.499 -13.5s-44.334 -21.333 -62.001 -37s-31.667 -34.334 -42 -56.001s-15.5 -45.167 -15.5 -70.5s5 -49 15 -71s23.833 -41 41.5 -57s38.167 -28.667 61.5 -38s48.666 -14 75.999 -14c26.667 0 51.834 4.66699 75.501 14
s44.334 22 62.001 38s31.5 35 41.5 57s15 45.667 15 71s-5.16699 48.833 -15.5 70.5s-24.333 40.334 -42 56.001s-38.334 28 -62.001 37s-48.5 13.5 -74.5 13.5zM414.001 855c-43.333 0 -84.167 7.83301 -122.5 23.5s-72.166 36.834 -101.499 63.501
s-52.5 57.834 -69.5 93.501s-25.5 73.834 -25.5 114.501s8.5 78.834 25.5 114.501s40 66.834 69 93.501s62.833 47.667 101.5 63s79.667 23 123 23s84.333 -7.66699 123 -23s72.5 -36.333 101.5 -63s52 -57.834 69 -93.501s25.5 -73.834 25.5 -114.501
s-8.5 -78.834 -25.5 -114.501s-40.167 -66.834 -69.5 -93.501s-63.333 -47.834 -102 -63.501s-79.334 -23.5 -122.001 -23.5z" />
    <glyph glyph-name="plusminus" unicode="&#xb1;" horiz-adv-x="1458" 
d="M200 0v138h1049v-138h-1049zM645 733v374h149v-374h451v-138h-447v-372h-151v372h-459v138h457z" />
    <glyph glyph-name="twosuperior" unicode="&#xb2;" 
d="M283 604l0.00292969 111l95 87l112.5 106c38.333 36.667 73.166 72.834 104.499 108.501s56.833 70 76.5 103s29.5 63.5 29.5 91.5c0 34 -12.333 61.167 -37 81.5s-59 30.5 -103 30.5c-42 0 -78.5 -11.667 -109.5 -35s-56.167 -55.333 -75.5 -96l-85 78
c23.333 54 59.166 95.833 107.499 125.5s104.5 44.5 168.5 44.5c37.333 0 72 -5.33301 104 -16s59.833 -25.834 83.5 -45.501s42.167 -43.5 55.5 -71.5s20 -59.333 20 -94c0 -43.333 -9.5 -85 -28.5 -125s-44.833 -79.833 -77.5 -119.5s-71.334 -79.667 -116.001 -120
l-143 -126.5h364v-118h-546z" />
    <glyph glyph-name="threesuperior" unicode="&#xb3;" 
d="M235 1340c30.667 30 68.335 54.3311 113.002 72.998s91 28 139 28c34.667 0 68.5 -5 101.5 -15s62 -24.667 87 -44s45.167 -43.166 60.5 -71.499s23 -60.833 23 -97.5c0 -39.333 -9.16699 -74.666 -27.5 -105.999s-44.833 -56.333 -79.5 -75
c40 -18 71.333 -43.5 94 -76.5s34 -73.5 34 -121.5c0 -38 -8 -72.333 -24 -103s-37.667 -56.834 -65 -78.501s-59.166 -38.167 -95.499 -49.5s-74.5 -17 -114.5 -17c-48 0 -93 8.16699 -135 24.5s-79 40.5 -111 72.5l60 96c56 -52 116.333 -78 181 -78c24 0 46.667 3 68 9
s39.833 14.833 55.5 26.5s28.167 26 37.5 43s14 36.167 14 57.5c0 24.667 -5 45.5 -15 62.5s-24.333 30.833 -43 41.5s-41.334 18.334 -68.001 23.001s-56.334 7 -89.001 7c-2.66699 0 -5.33398 -0.166992 -8.00098 -0.5s-5 -0.5 -7 -0.5h-41v119h49c28.667 0 55 2 79 6
s44.833 10.833 62.5 20.5s31.334 22.167 41.001 37.5s14.5 34.333 14.5 57c0 19.333 -3.5 36.166 -10.5 50.499s-16.833 26 -29.5 35s-27.5 15.667 -44.5 20s-35.833 6.5 -56.5 6.5c-36 0 -69.833 -7.16699 -101.5 -21.5s-61.834 -33.166 -90.501 -56.499z" />
    <glyph glyph-name="acute" unicode="&#xb4;" horiz-adv-x="607" 
d="M401 1492h212l-308 -320h-130z" />
    <glyph glyph-name="mu" unicode="&#xb5;" horiz-adv-x="1217" 
d="M157 1026l165 -0.000976562v-627c0 -95.333 20.5 -167.5 61.5 -216.5s105.833 -73.5 194.5 -73.5c48 0 90.5 8.66699 127.5 26s68.333 41 94 71s45.167 64.833 58.5 104.5s20 81.5 20 125.5v590h165v-780c0 -44 0.5 -85.5 1.5 -124.5s3.16699 -79.5 6.5 -121.5h-170
l-3 135c-77.333 -105.333 -190 -158 -338 -158c-46 0 -86.833 4.83301 -122.5 14.5s-67.5 22.834 -95.5 39.501v-233h-165v1228z" />
    <glyph glyph-name="mu" unicode="&#x3bc;" horiz-adv-x="1217" 
d="M157 1026l165 -0.000976562v-627c0 -95.333 20.5 -167.5 61.5 -216.5s105.833 -73.5 194.5 -73.5c48 0 90.5 8.66699 127.5 26s68.333 41 94 71s45.167 64.833 58.5 104.5s20 81.5 20 125.5v590h165v-780c0 -44 0.5 -85.5 1.5 -124.5s3.16699 -79.5 6.5 -121.5h-170
l-3 135c-77.333 -105.333 -190 -158 -338 -158c-46 0 -86.833 4.83301 -122.5 14.5s-67.5 22.834 -95.5 39.501v-233h-165v1228z" />
    <glyph glyph-name="paragraph" unicode="&#xb6;" horiz-adv-x="1214" 
d="M442 -148l0.00195312 934c-45.333 0.666992 -88.333 9.33398 -129 26.001s-76.167 40 -106.5 70s-54.5 66 -72.5 108s-27 88.667 -27 140c0 62.667 13.833 114.667 41.5 156s65.167 74.166 112.5 98.499s102.166 41.5 164.499 51.5s128.166 15 197.499 15h386v-124h-87
v-1475h-129v1475h-208v-1475h-143z" />
    <glyph glyph-name="glyph120" unicode="&#xb7;" horiz-adv-x="444" 
d="M293 513h-217v210h217v-210z" />
    <glyph glyph-name="cedilla" unicode="&#xb8;" horiz-adv-x="529" 
d="M60 -289c29.333 -7.33301 56.667 -13.1641 82 -17.4971s48.333 -6.5 69 -6.5c42 0 71.5 6.66699 88.5 20s25.5 30.666 25.5 51.999c0 27.333 -10.167 46.333 -30.5 57s-46.5 16 -78.5 16c-2 0 -6.66699 -0.333008 -14 -1l-23 -2l-32 -2l33 190h97l-18 -107
c28 -0.666992 54.667 -3.83398 80 -9.50098s47.5 -14.5 66.5 -26.5s34.167 -27.167 45.5 -45.5s17 -40.833 17 -67.5s-6.16699 -49.834 -18.5 -69.501s-29.333 -36 -51 -49s-47.167 -22.667 -76.5 -29s-61 -9.5 -95 -9.5c-26 0 -54 2.16699 -84 6.5s-60.333 9.5 -91 15.5z
" />
    <glyph glyph-name="onesuperior" unicode="&#xb9;" 
d="M240 1333c35.333 11.333 66.334 23.833 93.001 37.5s51.667 27.5 75 41.5l105 15v-707h122v-116h-365v119h122v346c0 22 -0.166992 43.833 -0.5 65.5s-0.5 43.5 -0.5 65.5v71c-21.333 -11.333 -45.333 -23 -72 -35s-53.334 -23 -80.001 -33z" />
    <glyph glyph-name="ordmasculine" unicode="&#xba;" horiz-adv-x="824" 
d="M415 1476c58.667 0 110.333 -9.16797 155 -27.501s82.167 -43.5 112.5 -75.5s53.166 -69.5 68.499 -112.5s23 -89.5 23 -139.5c0 -48.667 -7.83301 -94.5 -23.5 -137.5s-38.667 -80.5 -69 -112.5s-67.666 -57.333 -111.999 -76s-95.5 -28 -153.5 -28
c-60 0 -112.5 9.16699 -157.5 27.5s-82.833 43.5 -113.5 75.5s-53.667 69.833 -69 113.5s-23 90.5 -23 140.5c0 49.333 8 95.333 24 138s39.5 79.834 70.5 111.501s68.833 56.667 113.5 75s96 27.5 154 27.5zM192.999 1123c0 -34 4.50098 -66.168 13.501 -96.501
s22.833 -56.666 41.5 -78.999s42 -40 70 -53s60.667 -19.5 98 -19.5c35.333 0 66.666 6.5 93.999 19.5s50.333 30.667 69 53s32.834 48.333 42.501 78s14.5 60.834 14.5 93.501c0 34.667 -4.83301 67.167 -14.5 97.5s-23.834 56.833 -42.501 79.5s-42 40.5 -70 53.5
s-60 19.5 -96 19.5c-35.333 0 -66.666 -6.5 -93.999 -19.5s-50.333 -30.833 -69 -53.5s-32.834 -48.834 -42.501 -78.501s-14.5 -61.167 -14.5 -94.5z" />
    <glyph glyph-name="guillemotright" unicode="&#xbb;" horiz-adv-x="1156" 
d="M720 171h-157l261 371l-254 372h156l270 -372zM325 171h-160l265 371l-258 372h158l270 -372z" />
    <glyph glyph-name="onequarter" unicode="&#xbc;" horiz-adv-x="1986" 
d="M240 1333c35.333 11.333 66.334 23.833 93.001 37.5s51.667 27.5 75 41.5l105 15v-707h122v-116h-365v119h122v346c0 22 -0.166992 43.833 -0.5 65.5s-0.5 43.5 -0.5 65.5v71c-21.333 -11.333 -45.333 -23 -72 -35s-53.334 -23 -80.001 -33zM1491 1436l-903 -1436h-151
l905 1436h149zM1442 37v188h-378v91l366 518h134v-502h109l10 -107h-121v-188h-120zM1440 332v180l3 156l-240 -336h237z" />
    <glyph glyph-name="onehalf" unicode="&#xbd;" horiz-adv-x="1858" 
d="M240 1333c35.333 11.333 66.334 23.833 93.001 37.5s51.667 27.5 75 41.5l105 15v-707h122v-116h-365v119h122v346c0 22 -0.166992 43.833 -0.5 65.5s-0.5 43.5 -0.5 65.5v71c-21.333 -11.333 -45.333 -23 -72 -35s-53.334 -23 -80.001 -33zM1433 1436l-903 -1436h-151
l905 1436h149zM1064 -25l0.00292969 111l95 87l112.5 106c38.333 36.667 73.166 72.834 104.499 108.501s56.833 70 76.5 103s29.5 63.5 29.5 91.5c0 34 -12.333 61.167 -37 81.5s-59 30.5 -103 30.5c-42 0 -78.5 -11.667 -109.5 -35s-56.167 -55.333 -75.5 -96l-85 78
c23.333 54 59.166 95.833 107.499 125.5s104.5 44.5 168.5 44.5c37.333 0 72 -5.33301 104 -16s59.833 -25.834 83.5 -45.501s42.167 -43.5 55.5 -71.5s20 -59.333 20 -94c0 -43.333 -9.5 -85 -28.5 -125s-44.833 -79.833 -77.5 -119.5s-71.334 -79.667 -116.001 -120
l-143 -126.5h364v-118h-546z" />
    <glyph glyph-name="threequarters" unicode="&#xbe;" horiz-adv-x="1921" 
d="M180 1340c30.667 30 68.335 54.3311 113.002 72.998s91 28 139 28c34.667 0 68.5 -5 101.5 -15s62 -24.667 87 -44s45.167 -43.166 60.5 -71.499s23 -60.833 23 -97.5c0 -39.333 -9.16699 -74.666 -27.5 -105.999s-44.833 -56.333 -79.5 -75
c40 -18 71.333 -43.5 94 -76.5s34 -73.5 34 -121.5c0 -38 -8 -72.333 -24 -103s-37.667 -56.834 -65 -78.501s-59.166 -38.167 -95.499 -49.5s-74.5 -17 -114.5 -17c-48 0 -93 8.16699 -135 24.5s-79 40.5 -111 72.5l60 96c56 -52 116.333 -78 181 -78c24 0 46.667 3 68 9
s39.833 14.833 55.5 26.5s28.167 26 37.5 43s14 36.167 14 57.5c0 24.667 -5 45.5 -15 62.5s-24.333 30.833 -43 41.5s-41.334 18.334 -68.001 23.001s-56.334 7 -89.001 7c-2.66699 0 -5.33398 -0.166992 -8.00098 -0.5s-5 -0.5 -7 -0.5h-41v119h49c28.667 0 55 2 79 6
s44.833 10.833 62.5 20.5s31.334 22.167 41.001 37.5s14.5 34.333 14.5 57c0 19.333 -3.5 36.166 -10.5 50.499s-16.833 26 -29.5 35s-27.5 15.667 -44.5 20s-35.833 6.5 -56.5 6.5c-36 0 -69.833 -7.16699 -101.5 -21.5s-61.834 -33.166 -90.501 -56.499zM1477 1436
l-903 -1436h-151l905 1436h149zM1411 40.998v188h-378v91l366 518h134v-502h109l10 -107h-121v-188h-120zM1409 335.998v180l3 156l-240 -336h237z" />
    <glyph glyph-name="questiondown" unicode="&#xbf;" horiz-adv-x="1032" 
d="M689 702c1.33301 -20 2.99805 -40 4.99805 -60c1.33301 -17.333 2.5 -35.333 3.5 -54s1.5 -34.667 1.5 -48c0 -40.667 -9.5 -78 -28.5 -112s-42.667 -66.333 -71 -97s-59.166 -60.5 -92.499 -89.5s-64.166 -58.833 -92.499 -89.5s-52 -62.834 -71 -96.501
s-28.5 -70.5 -28.5 -110.5c0 -38 8 -70.333 24 -97s37.333 -48.5 64 -65.5s57.167 -29.333 91.5 -37s69.833 -11.5 106.5 -11.5c46 0 91 5.83301 135 17.5s86 28.834 126 51.501v-146c-48 -23.333 -96.333 -40 -145 -50s-94 -15 -136 -15
c-61.333 0 -118.5 7.16699 -171.5 21.5s-99 35.833 -138 64.5s-69.667 64.5 -92 107.5s-33.5 93.5 -33.5 151.5c0 42 9.83301 82.167 29.5 120.5s44.167 75.333 73.5 111s61 70 95 103s65.667 65.333 95 97s53.833 63.167 73.5 94.5s29.5 62.666 29.5 93.999
c0 15.333 -1 31.333 -3 48s-4 32.334 -6 47.001l-8 50h164zM498.998 1081h217v-210h-217v210z" />
    <glyph glyph-name="Agrave" unicode="&#xc0;" horiz-adv-x="1425" 
d="M199 0h-186l604 1456h185l605 -1456h-191l-163 397h-698zM410 545l583.998 -0.000976562l-234 605c-5.33301 12.667 -11 27.5 -17 44.5l-17 48.5c-6.66699 18 -13 36.333 -19 55l-20 -61c-5.33301 -16.667 -11.166 -33.167 -17.499 -49.5
s-11.166 -29.166 -14.499 -38.499zM481.998 1922h214l247 -320h-129z" />
    <glyph glyph-name="Aacute" unicode="&#xc1;" horiz-adv-x="1425" 
d="M199 0h-186l604 1456h185l605 -1456h-191l-163 397h-698zM410 545l583.998 -0.000976562l-234 605c-5.33301 12.667 -11 27.5 -17 44.5l-17 48.5c-6.66699 18 -13 36.333 -19 55l-20 -61c-5.33301 -16.667 -11.166 -33.167 -17.499 -49.5
s-11.166 -29.166 -14.499 -38.499zM718.998 1922h212l-308 -320h-130z" />
    <glyph glyph-name="Acircumflex" unicode="&#xc2;" horiz-adv-x="1425" 
d="M199 0h-186l604 1456h185l605 -1456h-191l-163 397h-698zM410 545l583.998 -0.000976562l-234 605c-5.33301 12.667 -11 27.5 -17 44.5l-17 48.5c-6.66699 18 -13 36.333 -19 55l-20 -61c-5.33301 -16.667 -11.166 -33.167 -17.499 -49.5
s-11.166 -29.166 -14.499 -38.499zM404.998 1600l228 324h157l229 -324h-132l-178 216l-178 -216h-126z" />
    <glyph glyph-name="Atilde" unicode="&#xc3;" horiz-adv-x="1425" 
d="M199 0h-186l604 1456h185l605 -1456h-191l-163 397h-698zM410 545l583.998 -0.000976562l-234 605c-5.33301 12.667 -11 27.5 -17 44.5l-17 48.5c-6.66699 18 -13 36.333 -19 55l-20 -61c-5.33301 -16.667 -11.166 -33.167 -17.499 -49.5
s-11.166 -29.166 -14.499 -38.499zM1034 1865c-3.33301 -30 -9.83398 -58.001 -19.501 -84.001s-22.834 -48.833 -39.501 -68.5s-36.334 -35 -59.001 -46s-48.334 -16.5 -77.001 -16.5c-20 0 -40.833 3.5 -62.5 10.5s-43.5 14.833 -65.5 23.5s-43.667 16.5 -65 23.5
s-41.333 10.5 -60 10.5c-54 0 -84.333 -28.333 -91 -85h-105c2.66699 31.333 9.33398 59.833 20.001 85.5s24.5 47.834 41.5 66.501s37.167 33 60.5 43s49 15 77 15c23.333 0 45.833 -3.5 67.5 -10.5s42.834 -14.833 63.501 -23.5s40.834 -16.5 60.501 -23.5
s39.167 -10.5 58.5 -10.5c22.667 0 41.834 7.5 57.501 22.5s25.5 37.5 29.5 67.5h108z" />
    <glyph glyph-name="Adieresis" unicode="&#xc4;" horiz-adv-x="1425" 
d="M199 0h-186l604 1456h185l605 -1456h-191l-163 397h-698zM410 545l583.998 -0.000976562l-234 605c-5.33301 12.667 -11 27.5 -17 44.5l-17 48.5c-6.66699 18 -13 36.333 -19 55l-20 -61c-5.33301 -16.667 -11.166 -33.167 -17.499 -49.5
s-11.166 -29.166 -14.499 -38.499zM626.998 1676h-163v163h164zM959.998 1676h-164v163h164v-163z" />
    <glyph glyph-name="Aring" unicode="&#xc5;" horiz-adv-x="1425" 
d="M199 0h-186l604 1456h185l605 -1456h-191l-163 397h-698zM410 545l583.998 -0.000976562l-234 605c-5.33301 12.667 -11 27.5 -17 44.5l-17 48.5c-6.66699 18 -13 36.333 -19 55l-20 -61c-5.33301 -16.667 -11.166 -33.167 -17.499 -49.5
s-11.166 -29.166 -14.499 -38.499zM821.998 1770c0 14.667 -2.83203 28.334 -8.49902 41.001s-13.5 23.667 -23.5 33s-21.833 16.833 -35.5 22.5s-28.167 8.5 -43.5 8.5c-14.667 0 -28.667 -2.83301 -42 -8.5s-25 -13.167 -35 -22.5s-18 -20.5 -24 -33.5s-9 -26.5 -9 -40.5
c0 -30.667 9.83301 -55.834 29.5 -75.501s46.5 -29.5 80.5 -29.5c14.667 0 28.667 2.83301 42 8.5s25.166 13.167 35.499 22.5s18.5 20.5 24.5 33.5s9 26.5 9 40.5zM501.999 1769c0 27.333 5.49902 52.667 16.499 76s26 43.5 45 60.5s41.333 30.333 67 40
s52.834 14.5 81.501 14.5c29.333 0 56.833 -5 82.5 -15s48 -23.5 67 -40.5s33.833 -37.167 44.5 -60.5s16 -48 16 -74c0 -26.667 -5.66699 -51.5 -17 -74.5s-26.5 -43.167 -45.5 -60.5s-41.167 -31 -66.5 -41s-52 -15 -80 -15c-29.333 0 -56.833 4.83301 -82.5 14.5
s-48 23 -67 40s-34 37.167 -45 60.5s-16.5 48.333 -16.5 75z" />
    <glyph glyph-name="AE" unicode="&#xc6;" horiz-adv-x="2028" 
d="M944 1308l-438 -762h548l-60 762h-50zM836 1456h1039l3 -148h-719l38 -488h637l3 -148h-621l41 -524h641l3 -148h-797l-31 398h-646l-226 -398h-196z" />
    <glyph glyph-name="Ccedilla" unicode="&#xc7;" horiz-adv-x="1399" 
d="M1190 1219c-102 76.667 -220.999 115 -356.999 115c-61.333 0 -117.333 -8.16699 -168 -24.5s-96.167 -39 -136.5 -68s-75.333 -63.167 -105 -102.5s-54.334 -82 -74.001 -128s-34.334 -94.5 -44.001 -145.5s-14.5 -102.167 -14.5 -153.5
c0 -78.667 10.333 -153.5 31 -224.5s52.334 -133.333 95.001 -187s96.667 -96.334 162 -128.001s142.666 -47.5 231.999 -47.5c82 0 159.167 11.833 231.5 35.5s135.833 59.5 190.5 107.5l58 -141c-62 -50 -135.333 -87.5 -220 -112.5s-180 -37.5 -286 -37.5
c-110 0 -207 19.333 -291 58s-154.667 91.5 -212 158.5s-100.666 145 -129.999 234s-44 184.167 -44 285.5c0 68.667 7.16699 135.334 21.5 200.001s35.333 125.5 63 182.5s61.834 109.333 102.501 157s87.167 88.5 139.5 122.5s110.166 60.5 173.499 79.5
s132 28.5 206 28.5c90.667 0 171.667 -12.167 243 -36.5s137.333 -63.5 198 -117.5zM499.001 -289c29.333 -7.33301 56.667 -13.1641 82 -17.4971s48.333 -6.5 69 -6.5c42 0 71.5 6.66699 88.5 20s25.5 30.666 25.5 51.999c0 27.333 -10.167 46.333 -30.5 57
s-46.5 16 -78.5 16c-2 0 -6.66699 -0.333008 -14 -1l-23 -2l-32 -2l33 190h97l-18 -107c28 -0.666992 54.667 -3.83398 80 -9.50098s47.5 -14.5 66.5 -26.5s34.167 -27.167 45.5 -45.5s17 -40.833 17 -67.5s-6.16699 -49.834 -18.5 -69.501s-29.333 -36 -51 -49
s-47.167 -22.667 -76.5 -29s-61 -9.5 -95 -9.5c-26 0 -54 2.16699 -84 6.5s-60.333 9.5 -91 15.5z" />
    <glyph glyph-name="Egrave" unicode="&#xc8;" horiz-adv-x="1218" 
d="M1102 0h-897v1456h867v-148h-695v-488h657v-148h-657v-524h725v-148zM378 1922h214l247 -320h-129z" />
    <glyph glyph-name="Eacute" unicode="&#xc9;" horiz-adv-x="1218" 
d="M1102 0h-897v1456h867v-148h-695v-488h657v-148h-657v-524h725v-148zM616 1922h212l-308 -320h-130z" />
    <glyph glyph-name="Ecircumflex" unicode="&#xca;" horiz-adv-x="1218" 
d="M1102 0h-897v1456h867v-148h-695v-488h657v-148h-657v-524h725v-148zM302 1600l228 324h157l229 -324h-132l-178 216l-178 -216h-126z" />
    <glyph glyph-name="Edieresis" unicode="&#xcb;" horiz-adv-x="1218" 
d="M1102 0h-897v1456h867v-148h-695v-488h657v-148h-657v-524h725v-148zM524 1676h-163v163h164zM857 1676h-164v163h164v-163z" />
    <glyph glyph-name="Igrave" unicode="&#xcc;" horiz-adv-x="591" 
d="M382 0h-172v1456h172v-1456zM65 1922h214l247 -320h-129z" />
    <glyph glyph-name="Iacute" unicode="&#xcd;" horiz-adv-x="591" 
d="M382 0h-172v1456h172v-1456zM304 1922h212l-308 -320h-130z" />
    <glyph glyph-name="Icircumflex" unicode="&#xce;" horiz-adv-x="591" 
d="M382 0h-172v1456h172v-1456zM-10 1600l228 324h157l229 -324h-132l-178 216l-178 -216h-126z" />
    <glyph glyph-name="Idieresis" unicode="&#xcf;" horiz-adv-x="591" 
d="M382 0h-172v1456h172v-1456zM212 1676h-163v163h164zM545 1676h-164v163h164v-163z" />
    <glyph glyph-name="Eth" unicode="&#xd0;" horiz-adv-x="1546" 
d="M193 658h-192.997l-1 137h194v661h315c86.667 0 169.667 -5 249 -15s153.166 -26.333 221.499 -49s130.333 -52.5 186 -89.5s103.167 -82.667 142.5 -137s69.666 -118 90.999 -191s32 -156.5 32 -250.5c0 -110.667 -18.5 -210.5 -55.5 -299.5s-90.667 -165 -161 -228
s-156.333 -111.5 -258 -145.5s-216.834 -51 -345.501 -51h-417v658zM365.003 658v-509.999h261c106 0 198 14.167 276 42.5s142.667 67.833 194 118.5s89.5 111.167 114.5 181.5s37.5 147.166 37.5 230.499c0 109.333 -15.333 201.5 -46 276.5s-76.167 135.5 -136.5 181.5
s-135.333 79 -225 99s-193.5 30 -311.5 30h-164v-513h205l1 -137h-206z" />
    <glyph glyph-name="Ntilde" unicode="&#xd1;" horiz-adv-x="1594" 
d="M193 0v1456h206l747 -1114l78 -127v233v1008h171v-1456h-208l-750 1113l-72 124v-190v-1047h-172zM1119 1865c-3.33301 -30 -9.83398 -58.001 -19.501 -84.001s-22.834 -48.833 -39.501 -68.5s-36.334 -35 -59.001 -46s-48.334 -16.5 -77.001 -16.5
c-20 0 -40.833 3.5 -62.5 10.5s-43.5 14.833 -65.5 23.5s-43.667 16.5 -65 23.5s-41.333 10.5 -60 10.5c-54 0 -84.333 -28.333 -91 -85h-105c2.66699 31.333 9.33398 59.833 20.001 85.5s24.5 47.834 41.5 66.501s37.167 33 60.5 43s49 15 77 15
c23.333 0 45.833 -3.5 67.5 -10.5s42.834 -14.833 63.501 -23.5s40.834 -16.5 60.501 -23.5s39.167 -10.5 58.5 -10.5c22.667 0 41.834 7.5 57.501 22.5s25.5 37.5 29.5 67.5h108z" />
    <glyph glyph-name="Ograve" unicode="&#xd2;" horiz-adv-x="1663" 
d="M1544 726c0 -110 -16.167 -210.833 -48.5 -302.5s-79.166 -170.667 -140.499 -237s-136.333 -117.833 -225 -154.5s-189 -55 -301 -55c-111.333 0 -211.166 17.667 -299.499 53s-163.333 85.666 -225 150.999s-108.834 144.333 -141.501 237s-49 196.334 -49 311.001
c0 109.333 16.333 210 49 302s80 171.5 142 238.5s137.667 119.333 227 157s191 56.5 305 56.5c108.667 0 206.667 -18 294 -54s161.666 -87 222.999 -153s108.333 -145.5 141 -238.5s49 -196.833 49 -311.5zM298 725c0 -84 11.168 -162.498 33.501 -235.498
s55.666 -136.5 99.999 -190.5s99.5 -96.5 165.5 -127.5s142.667 -46.5 230 -46.5c88 0 165.167 15.5 231.5 46.5s121.5 73.667 165.5 128s77 118.666 99 192.999s33 154.833 33 241.5c0 84.667 -10.833 163.667 -32.5 237s-54.5 137 -98.5 191s-98.833 96.333 -164.5 127
s-142.5 46 -230.5 46c-87.333 0 -164 -16.667 -230 -50s-121.5 -78 -166.5 -134s-78.833 -120.833 -101.5 -194.5s-34 -150.834 -34 -231.501zM601.001 1922h214l247 -320h-129z" />
    <glyph glyph-name="Oacute" unicode="&#xd3;" horiz-adv-x="1663" 
d="M1544 726c0 -110 -16.167 -210.833 -48.5 -302.5s-79.166 -170.667 -140.499 -237s-136.333 -117.833 -225 -154.5s-189 -55 -301 -55c-111.333 0 -211.166 17.667 -299.499 53s-163.333 85.666 -225 150.999s-108.834 144.333 -141.501 237s-49 196.334 -49 311.001
c0 109.333 16.333 210 49 302s80 171.5 142 238.5s137.667 119.333 227 157s191 56.5 305 56.5c108.667 0 206.667 -18 294 -54s161.666 -87 222.999 -153s108.333 -145.5 141 -238.5s49 -196.833 49 -311.5zM298 725c0 -84 11.168 -162.498 33.501 -235.498
s55.666 -136.5 99.999 -190.5s99.5 -96.5 165.5 -127.5s142.667 -46.5 230 -46.5c88 0 165.167 15.5 231.5 46.5s121.5 73.667 165.5 128s77 118.666 99 192.999s33 154.833 33 241.5c0 84.667 -10.833 163.667 -32.5 237s-54.5 137 -98.5 191s-98.833 96.333 -164.5 127
s-142.5 46 -230.5 46c-87.333 0 -164 -16.667 -230 -50s-121.5 -78 -166.5 -134s-78.833 -120.833 -101.5 -194.5s-34 -150.834 -34 -231.501zM838.001 1922h212l-308 -320h-130z" />
    <glyph glyph-name="Ocircumflex" unicode="&#xd4;" horiz-adv-x="1663" 
d="M1544 726c0 -110 -16.167 -210.833 -48.5 -302.5s-79.166 -170.667 -140.499 -237s-136.333 -117.833 -225 -154.5s-189 -55 -301 -55c-111.333 0 -211.166 17.667 -299.499 53s-163.333 85.666 -225 150.999s-108.834 144.333 -141.501 237s-49 196.334 -49 311.001
c0 109.333 16.333 210 49 302s80 171.5 142 238.5s137.667 119.333 227 157s191 56.5 305 56.5c108.667 0 206.667 -18 294 -54s161.666 -87 222.999 -153s108.333 -145.5 141 -238.5s49 -196.833 49 -311.5zM298 725c0 -84 11.168 -162.498 33.501 -235.498
s55.666 -136.5 99.999 -190.5s99.5 -96.5 165.5 -127.5s142.667 -46.5 230 -46.5c88 0 165.167 15.5 231.5 46.5s121.5 73.667 165.5 128s77 118.666 99 192.999s33 154.833 33 241.5c0 84.667 -10.833 163.667 -32.5 237s-54.5 137 -98.5 191s-98.833 96.333 -164.5 127
s-142.5 46 -230.5 46c-87.333 0 -164 -16.667 -230 -50s-121.5 -78 -166.5 -134s-78.833 -120.833 -101.5 -194.5s-34 -150.834 -34 -231.501zM524.001 1600l228 324h157l229 -324h-132l-178 216l-178 -216h-126z" />
    <glyph glyph-name="Otilde" unicode="&#xd5;" horiz-adv-x="1663" 
d="M1544 726c0 -110 -16.167 -210.833 -48.5 -302.5s-79.166 -170.667 -140.499 -237s-136.333 -117.833 -225 -154.5s-189 -55 -301 -55c-111.333 0 -211.166 17.667 -299.499 53s-163.333 85.666 -225 150.999s-108.834 144.333 -141.501 237s-49 196.334 -49 311.001
c0 109.333 16.333 210 49 302s80 171.5 142 238.5s137.667 119.333 227 157s191 56.5 305 56.5c108.667 0 206.667 -18 294 -54s161.666 -87 222.999 -153s108.333 -145.5 141 -238.5s49 -196.833 49 -311.5zM298 725c0 -84 11.168 -162.498 33.501 -235.498
s55.666 -136.5 99.999 -190.5s99.5 -96.5 165.5 -127.5s142.667 -46.5 230 -46.5c88 0 165.167 15.5 231.5 46.5s121.5 73.667 165.5 128s77 118.666 99 192.999s33 154.833 33 241.5c0 84.667 -10.833 163.667 -32.5 237s-54.5 137 -98.5 191s-98.833 96.333 -164.5 127
s-142.5 46 -230.5 46c-87.333 0 -164 -16.667 -230 -50s-121.5 -78 -166.5 -134s-78.833 -120.833 -101.5 -194.5s-34 -150.834 -34 -231.501zM1153 1865c-3.33301 -30 -9.83398 -58.001 -19.501 -84.001s-22.834 -48.833 -39.501 -68.5s-36.334 -35 -59.001 -46
s-48.334 -16.5 -77.001 -16.5c-20 0 -40.833 3.5 -62.5 10.5s-43.5 14.833 -65.5 23.5s-43.667 16.5 -65 23.5s-41.333 10.5 -60 10.5c-54 0 -84.333 -28.333 -91 -85h-105c2.66699 31.333 9.33398 59.833 20.001 85.5s24.5 47.834 41.5 66.501s37.167 33 60.5 43
s49 15 77 15c23.333 0 45.833 -3.5 67.5 -10.5s42.834 -14.833 63.501 -23.5s40.834 -16.5 60.501 -23.5s39.167 -10.5 58.5 -10.5c22.667 0 41.834 7.5 57.501 22.5s25.5 37.5 29.5 67.5h108z" />
    <glyph glyph-name="Odieresis" unicode="&#xd6;" horiz-adv-x="1663" 
d="M1544 726c0 -110 -16.167 -210.833 -48.5 -302.5s-79.166 -170.667 -140.499 -237s-136.333 -117.833 -225 -154.5s-189 -55 -301 -55c-111.333 0 -211.166 17.667 -299.499 53s-163.333 85.666 -225 150.999s-108.834 144.333 -141.501 237s-49 196.334 -49 311.001
c0 109.333 16.333 210 49 302s80 171.5 142 238.5s137.667 119.333 227 157s191 56.5 305 56.5c108.667 0 206.667 -18 294 -54s161.666 -87 222.999 -153s108.333 -145.5 141 -238.5s49 -196.833 49 -311.5zM298 725c0 -84 11.168 -162.498 33.501 -235.498
s55.666 -136.5 99.999 -190.5s99.5 -96.5 165.5 -127.5s142.667 -46.5 230 -46.5c88 0 165.167 15.5 231.5 46.5s121.5 73.667 165.5 128s77 118.666 99 192.999s33 154.833 33 241.5c0 84.667 -10.833 163.667 -32.5 237s-54.5 137 -98.5 191s-98.833 96.333 -164.5 127
s-142.5 46 -230.5 46c-87.333 0 -164 -16.667 -230 -50s-121.5 -78 -166.5 -134s-78.833 -120.833 -101.5 -194.5s-34 -150.834 -34 -231.501zM746.001 1676h-163v163h164zM1079 1676h-164v163h164v-163z" />
    <glyph glyph-name="multiply" unicode="&#xd7;" horiz-adv-x="1458" 
d="M825 554l297 -296l-104 -104l-296 296l-297 -296l-103 103l296 297l-296 297l103 103l297 -297l296 297l104 -104z" />
    <glyph glyph-name="Oslash" unicode="&#xd8;" horiz-adv-x="1663" 
d="M1544 726c0 -110 -16.167 -210.833 -48.5 -302.5s-79.166 -170.667 -140.499 -237s-136.333 -117.833 -225 -154.5s-189 -55 -301 -55c-111.333 0 -211.166 17.667 -299.499 53s-163.333 85.666 -225 150.999s-108.834 144.333 -141.501 237s-49 196.334 -49 311.001
c0 109.333 16.333 210 49 302s80 171.5 142 238.5s137.667 119.333 227 157s191 56.5 305 56.5c108.667 0 206.667 -18 294 -54s161.666 -87 222.999 -153s108.333 -145.5 141 -238.5s49 -196.833 49 -311.5zM298 725c0 -84 11.168 -162.498 33.501 -235.498
s55.666 -136.5 99.999 -190.5s99.5 -96.5 165.5 -127.5s142.667 -46.5 230 -46.5c88 0 165.167 15.5 231.5 46.5s121.5 73.667 165.5 128s77 118.666 99 192.999s33 154.833 33 241.5c0 84.667 -10.833 163.667 -32.5 237s-54.5 137 -98.5 191s-98.833 96.333 -164.5 127
s-142.5 46 -230.5 46c-87.333 0 -164 -16.667 -230 -50s-121.5 -78 -166.5 -134s-78.833 -120.833 -101.5 -194.5s-34 -150.834 -34 -231.501zM442.001 -116.998l637 1666h167l-641 -1666h-163z" />
    <glyph glyph-name="Ugrave" unicode="&#xd9;" horiz-adv-x="1532" 
d="M191 1456l171.998 0.000976562v-910c0 -136 33.667 -240.167 101 -312.5s167 -108.5 299 -108.5c60.667 0 115.834 9.5 165.501 28.5s92 46.333 127 82s62 79.167 81 130.5s28.5 109 28.5 173v917h172l-1 -905c-0.666992 -90 -13.167 -170.667 -37.5 -242
s-60.666 -131.5 -108.999 -180.5s-108.666 -86.5 -180.999 -112.5s-156.5 -39 -252.5 -39c-104 0 -192 13.667 -264 41s-130.333 65.833 -175 115.5s-76.834 109.167 -96.501 178.5s-29.5 145.666 -29.5 228.999v915zM534.998 1922h214l247 -320h-129z" />
    <glyph glyph-name="Uacute" unicode="&#xda;" horiz-adv-x="1532" 
d="M191 1456l171.998 0.000976562v-910c0 -136 33.667 -240.167 101 -312.5s167 -108.5 299 -108.5c60.667 0 115.834 9.5 165.501 28.5s92 46.333 127 82s62 79.167 81 130.5s28.5 109 28.5 173v917h172l-1 -905c-0.666992 -90 -13.167 -170.667 -37.5 -242
s-60.666 -131.5 -108.999 -180.5s-108.666 -86.5 -180.999 -112.5s-156.5 -39 -252.5 -39c-104 0 -192 13.667 -264 41s-130.333 65.833 -175 115.5s-76.834 109.167 -96.501 178.5s-29.5 145.666 -29.5 228.999v915zM772.998 1922h212l-308 -320h-130z" />
    <glyph glyph-name="Ucircumflex" unicode="&#xdb;" horiz-adv-x="1532" 
d="M191 1456l171.998 0.000976562v-910c0 -136 33.667 -240.167 101 -312.5s167 -108.5 299 -108.5c60.667 0 115.834 9.5 165.501 28.5s92 46.333 127 82s62 79.167 81 130.5s28.5 109 28.5 173v917h172l-1 -905c-0.666992 -90 -13.167 -170.667 -37.5 -242
s-60.666 -131.5 -108.999 -180.5s-108.666 -86.5 -180.999 -112.5s-156.5 -39 -252.5 -39c-104 0 -192 13.667 -264 41s-130.333 65.833 -175 115.5s-76.834 109.167 -96.501 178.5s-29.5 145.666 -29.5 228.999v915zM458.998 1600l228 324h157l229 -324h-132l-178 216
l-178 -216h-126z" />
    <glyph glyph-name="Udieresis" unicode="&#xdc;" horiz-adv-x="1532" 
d="M191 1456l171.998 0.000976562v-910c0 -136 33.667 -240.167 101 -312.5s167 -108.5 299 -108.5c60.667 0 115.834 9.5 165.501 28.5s92 46.333 127 82s62 79.167 81 130.5s28.5 109 28.5 173v917h172l-1 -905c-0.666992 -90 -13.167 -170.667 -37.5 -242
s-60.666 -131.5 -108.999 -180.5s-108.666 -86.5 -180.999 -112.5s-156.5 -39 -252.5 -39c-104 0 -192 13.667 -264 41s-130.333 65.833 -175 115.5s-76.834 109.167 -96.501 178.5s-29.5 145.666 -29.5 228.999v915zM680.998 1676h-163v163h164zM1014 1676h-164v163h164
v-163z" />
    <glyph glyph-name="Yacute" unicode="&#xdd;" horiz-adv-x="1266" 
d="M543 0v582l-533 874h191l431 -729l435 729h191l-543 -871v-585h-172zM640 1922h212l-308 -320h-130z" />
    <glyph glyph-name="Thorn" unicode="&#xde;" horiz-adv-x="1274" 
d="M375 0h-172v1456h172v-144h169c56.667 0 112.167 -2.5 166.5 -7.5s105.833 -13.667 154.5 -26s93.5 -29 134.5 -50s76.333 -47.667 106 -80s52.834 -70.833 69.501 -115.5s25 -97 25 -157c0 -76 -16.5 -141.333 -49.5 -196s-77.333 -99.5 -133 -134.5
s-119.834 -60.833 -192.501 -77.5s-148.667 -25 -228 -25h-222v-443zM375 1164l-0.00292969 -572h261c54.667 0 105.334 5.5 152.001 16.5s86.834 28 120.501 51s60 52.167 79 87.5s28.5 77.666 28.5 126.999c0 58 -10.5 105.833 -31.5 143.5s-50.333 67.334 -88 89.001
s-82.667 36.667 -135 45s-110.166 12.5 -173.499 12.5h-213z" />
    <glyph glyph-name="germandbls" unicode="&#xdf;" horiz-adv-x="1257" 
d="M536 243c39.333 -46 81.166 -79.8281 125.499 -101.495s86.5 -32.5 126.5 -32.5c26.667 0 52 4.66699 76 14s45 23 63 41s32.333 40.333 43 67s16 57 16 91c0 50.667 -11.5 96 -34.5 136s-52.833 76.5 -89.5 109.5s-77.667 63.167 -123 90.5l-134 79l-33 19l16 136
c30.667 14 60.167 31 88.5 51s53.333 42.833 75 68.5s39 53.5 52 83.5s19.5 62 19.5 96c0 30 -5.33301 56.667 -16 80s-25.5 43.333 -44.5 60s-42.167 29.334 -69.5 38.001s-57.333 13 -90 13c-46.667 0 -86.834 -9.16699 -120.501 -27.5s-61.167 -43 -82.5 -74
s-37.166 -67.5 -47.499 -109.5s-15.5 -86.333 -15.5 -133c0 -43.333 0.166992 -93 0.5 -149s0.5 -115.333 0.5 -178s0.333008 -126.834 1 -192.501s1 -129.834 1 -192.501s0.166992 -122 0.5 -178s0.5 -105.333 0.5 -148h-165l-2 1071
c-0.666992 66.667 8.66602 127 27.999 181s47.5 100.167 84.5 138.5s82.167 68 135.5 89s114 31.5 182 31.5c64 0 121.167 -8.33301 171.5 -25s93 -39.5 128 -68.5s61.667 -62.833 80 -101.5s27.5 -80 27.5 -124c0 -44.667 -10.667 -86.834 -32 -126.501
s-47.333 -75.667 -78 -108s-62.667 -60.833 -96 -85.5s-62 -44.334 -86 -59.001c-4.66699 -2.66699 -7 -5 -7 -7s2.33301 -4 7 -6c52.667 -20.667 105.834 -43.834 159.501 -69.501s102.334 -56.5 146.001 -92.5s79.334 -78 107.001 -126s41.5 -105 41.5 -171
c0 -55.333 -10.667 -105.333 -32 -150s-49.833 -82.834 -85.5 -114.501s-76.334 -56.167 -122.001 -73.5s-92.834 -26 -141.501 -26c-57.333 0 -114.166 12.833 -170.499 38.5s-106.5 66.5 -150.5 122.5z" />
    <glyph glyph-name="agrave" unicode="&#xe0;" horiz-adv-x="1244" 
d="M582 1051c42 0 80.333 -3.83594 115 -11.5029s66.667 -18.5 96 -32.5s56.333 -31.333 81 -52s47.667 -44 69 -70l6 141h163l-4 -253v-773h-165l2 144c-16 -21.333 -36.167 -42.166 -60.5 -62.499s-51.833 -38.166 -82.5 -53.499s-64.5 -27.666 -101.5 -36.999
s-75.833 -14 -116.5 -14c-57.333 0 -109.333 7.5 -156 22.5s-88.334 35.667 -125.001 62s-68.5 57.166 -95.5 92.499s-49.167 73.333 -66.5 114s-30.333 82.834 -39 126.501s-13 86.834 -13 129.501c0 66 10.167 130.667 30.5 194s51 119.666 92 168.999s92.333 89 154 119
s133.834 45 216.501 45zM601 108.997c46.667 0 90.5 9.50098 131.5 28.501s77 47 108 84s55.667 83 74 138s27.833 118.5 28.5 190.5c0 54 -8.16699 103.333 -24.5 148s-39.5 83.334 -69.5 116.001s-66.5 58 -109.5 76s-91.167 27 -144.5 27
c-40.667 0 -77.334 -5.5 -110.001 -16.5s-61.667 -26.167 -87 -45.5s-47.333 -42 -66 -68s-34 -53.833 -46 -83.5s-20.833 -60.5 -26.5 -92.5s-8.5 -63.667 -8.5 -95c0 -30.667 2.16699 -62.167 6.5 -94.5s11.5 -63.5 21.5 -93.5s23.667 -58.333 41 -85
s38.833 -49.834 64.5 -69.501s56.334 -35.334 92.001 -47.001s77.167 -17.5 124.5 -17.5zM391 1492h214l247 -320h-129z" />
    <glyph glyph-name="aacute" unicode="&#xe1;" horiz-adv-x="1244" 
d="M582 1051c42 0 80.333 -3.83594 115 -11.5029s66.667 -18.5 96 -32.5s56.333 -31.333 81 -52s47.667 -44 69 -70l6 141h163l-4 -253v-773h-165l2 144c-16 -21.333 -36.167 -42.166 -60.5 -62.499s-51.833 -38.166 -82.5 -53.499s-64.5 -27.666 -101.5 -36.999
s-75.833 -14 -116.5 -14c-57.333 0 -109.333 7.5 -156 22.5s-88.334 35.667 -125.001 62s-68.5 57.166 -95.5 92.499s-49.167 73.333 -66.5 114s-30.333 82.834 -39 126.501s-13 86.834 -13 129.501c0 66 10.167 130.667 30.5 194s51 119.666 92 168.999s92.333 89 154 119
s133.834 45 216.501 45zM601 108.997c46.667 0 90.5 9.50098 131.5 28.501s77 47 108 84s55.667 83 74 138s27.833 118.5 28.5 190.5c0 54 -8.16699 103.333 -24.5 148s-39.5 83.334 -69.5 116.001s-66.5 58 -109.5 76s-91.167 27 -144.5 27
c-40.667 0 -77.334 -5.5 -110.001 -16.5s-61.667 -26.167 -87 -45.5s-47.333 -42 -66 -68s-34 -53.833 -46 -83.5s-20.833 -60.5 -26.5 -92.5s-8.5 -63.667 -8.5 -95c0 -30.667 2.16699 -62.167 6.5 -94.5s11.5 -63.5 21.5 -93.5s23.667 -58.333 41 -85
s38.833 -49.834 64.5 -69.501s56.334 -35.334 92.001 -47.001s77.167 -17.5 124.5 -17.5zM629 1492h212l-308 -320h-130z" />
    <glyph glyph-name="acircumflex" unicode="&#xe2;" horiz-adv-x="1244" 
d="M582 1051c42 0 80.333 -3.83594 115 -11.5029s66.667 -18.5 96 -32.5s56.333 -31.333 81 -52s47.667 -44 69 -70l6 141h163l-4 -253v-773h-165l2 144c-16 -21.333 -36.167 -42.166 -60.5 -62.499s-51.833 -38.166 -82.5 -53.499s-64.5 -27.666 -101.5 -36.999
s-75.833 -14 -116.5 -14c-57.333 0 -109.333 7.5 -156 22.5s-88.334 35.667 -125.001 62s-68.5 57.166 -95.5 92.499s-49.167 73.333 -66.5 114s-30.333 82.834 -39 126.501s-13 86.834 -13 129.501c0 66 10.167 130.667 30.5 194s51 119.666 92 168.999s92.333 89 154 119
s133.834 45 216.501 45zM601 108.997c46.667 0 90.5 9.50098 131.5 28.501s77 47 108 84s55.667 83 74 138s27.833 118.5 28.5 190.5c0 54 -8.16699 103.333 -24.5 148s-39.5 83.334 -69.5 116.001s-66.5 58 -109.5 76s-91.167 27 -144.5 27
c-40.667 0 -77.334 -5.5 -110.001 -16.5s-61.667 -26.167 -87 -45.5s-47.333 -42 -66 -68s-34 -53.833 -46 -83.5s-20.833 -60.5 -26.5 -92.5s-8.5 -63.667 -8.5 -95c0 -30.667 2.16699 -62.167 6.5 -94.5s11.5 -63.5 21.5 -93.5s23.667 -58.333 41 -85
s38.833 -49.834 64.5 -69.501s56.334 -35.334 92.001 -47.001s77.167 -17.5 124.5 -17.5zM315 1170l228 324h157l229 -324h-132l-178 216l-178 -216h-126z" />
    <glyph glyph-name="atilde" unicode="&#xe3;" horiz-adv-x="1244" 
d="M582 1051c42 0 80.333 -3.83594 115 -11.5029s66.667 -18.5 96 -32.5s56.333 -31.333 81 -52s47.667 -44 69 -70l6 141h163l-4 -253v-773h-165l2 144c-16 -21.333 -36.167 -42.166 -60.5 -62.499s-51.833 -38.166 -82.5 -53.499s-64.5 -27.666 -101.5 -36.999
s-75.833 -14 -116.5 -14c-57.333 0 -109.333 7.5 -156 22.5s-88.334 35.667 -125.001 62s-68.5 57.166 -95.5 92.499s-49.167 73.333 -66.5 114s-30.333 82.834 -39 126.501s-13 86.834 -13 129.501c0 66 10.167 130.667 30.5 194s51 119.666 92 168.999s92.333 89 154 119
s133.834 45 216.501 45zM601 108.997c46.667 0 90.5 9.50098 131.5 28.501s77 47 108 84s55.667 83 74 138s27.833 118.5 28.5 190.5c0 54 -8.16699 103.333 -24.5 148s-39.5 83.334 -69.5 116.001s-66.5 58 -109.5 76s-91.167 27 -144.5 27
c-40.667 0 -77.334 -5.5 -110.001 -16.5s-61.667 -26.167 -87 -45.5s-47.333 -42 -66 -68s-34 -53.833 -46 -83.5s-20.833 -60.5 -26.5 -92.5s-8.5 -63.667 -8.5 -95c0 -30.667 2.16699 -62.167 6.5 -94.5s11.5 -63.5 21.5 -93.5s23.667 -58.333 41 -85
s38.833 -49.834 64.5 -69.501s56.334 -35.334 92.001 -47.001s77.167 -17.5 124.5 -17.5zM944 1435c-3.33301 -30 -9.83398 -58.001 -19.501 -84.001s-22.834 -48.833 -39.501 -68.5s-36.334 -35 -59.001 -46s-48.334 -16.5 -77.001 -16.5c-20 0 -40.833 3.5 -62.5 10.5
s-43.5 14.833 -65.5 23.5s-43.667 16.5 -65 23.5s-41.333 10.5 -60 10.5c-54 0 -84.333 -28.333 -91 -85h-105c2.66699 31.333 9.33398 59.833 20.001 85.5s24.5 47.834 41.5 66.501s37.167 33 60.5 43s49 15 77 15c23.333 0 45.833 -3.5 67.5 -10.5
s42.834 -14.833 63.501 -23.5s40.834 -16.5 60.501 -23.5s39.167 -10.5 58.5 -10.5c22.667 0 41.834 7.5 57.501 22.5s25.5 37.5 29.5 67.5h108z" />
    <glyph glyph-name="adieresis" unicode="&#xe4;" horiz-adv-x="1244" 
d="M582 1051c42 0 80.333 -3.83594 115 -11.5029s66.667 -18.5 96 -32.5s56.333 -31.333 81 -52s47.667 -44 69 -70l6 141h163l-4 -253v-773h-165l2 144c-16 -21.333 -36.167 -42.166 -60.5 -62.499s-51.833 -38.166 -82.5 -53.499s-64.5 -27.666 -101.5 -36.999
s-75.833 -14 -116.5 -14c-57.333 0 -109.333 7.5 -156 22.5s-88.334 35.667 -125.001 62s-68.5 57.166 -95.5 92.499s-49.167 73.333 -66.5 114s-30.333 82.834 -39 126.501s-13 86.834 -13 129.501c0 66 10.167 130.667 30.5 194s51 119.666 92 168.999s92.333 89 154 119
s133.834 45 216.501 45zM601 108.997c46.667 0 90.5 9.50098 131.5 28.501s77 47 108 84s55.667 83 74 138s27.833 118.5 28.5 190.5c0 54 -8.16699 103.333 -24.5 148s-39.5 83.334 -69.5 116.001s-66.5 58 -109.5 76s-91.167 27 -144.5 27
c-40.667 0 -77.334 -5.5 -110.001 -16.5s-61.667 -26.167 -87 -45.5s-47.333 -42 -66 -68s-34 -53.833 -46 -83.5s-20.833 -60.5 -26.5 -92.5s-8.5 -63.667 -8.5 -95c0 -30.667 2.16699 -62.167 6.5 -94.5s11.5 -63.5 21.5 -93.5s23.667 -58.333 41 -85
s38.833 -49.834 64.5 -69.501s56.334 -35.334 92.001 -47.001s77.167 -17.5 124.5 -17.5zM537 1246h-163v163h164zM870 1246h-164v163h164v-163z" />
    <glyph glyph-name="aring" unicode="&#xe5;" horiz-adv-x="1244" 
d="M582 1051c42 0 80.333 -3.83594 115 -11.5029s66.667 -18.5 96 -32.5s56.333 -31.333 81 -52s47.667 -44 69 -70l6 141h163l-4 -253v-773h-165l2 144c-16 -21.333 -36.167 -42.166 -60.5 -62.499s-51.833 -38.166 -82.5 -53.499s-64.5 -27.666 -101.5 -36.999
s-75.833 -14 -116.5 -14c-57.333 0 -109.333 7.5 -156 22.5s-88.334 35.667 -125.001 62s-68.5 57.166 -95.5 92.499s-49.167 73.333 -66.5 114s-30.333 82.834 -39 126.501s-13 86.834 -13 129.501c0 66 10.167 130.667 30.5 194s51 119.666 92 168.999s92.333 89 154 119
s133.834 45 216.501 45zM601 108.997c46.667 0 90.5 9.50098 131.5 28.501s77 47 108 84s55.667 83 74 138s27.833 118.5 28.5 190.5c0 54 -8.16699 103.333 -24.5 148s-39.5 83.334 -69.5 116.001s-66.5 58 -109.5 76s-91.167 27 -144.5 27
c-40.667 0 -77.334 -5.5 -110.001 -16.5s-61.667 -26.167 -87 -45.5s-47.333 -42 -66 -68s-34 -53.833 -46 -83.5s-20.833 -60.5 -26.5 -92.5s-8.5 -63.667 -8.5 -95c0 -30.667 2.16699 -62.167 6.5 -94.5s11.5 -63.5 21.5 -93.5s23.667 -58.333 41 -85
s38.833 -49.834 64.5 -69.501s56.334 -35.334 92.001 -47.001s77.167 -17.5 124.5 -17.5zM732 1340c0 14.667 -2.83203 28.334 -8.49902 41.001s-13.5 23.667 -23.5 33s-21.833 16.833 -35.5 22.5s-28.167 8.5 -43.5 8.5c-14.667 0 -28.667 -2.83301 -42 -8.5
s-25 -13.167 -35 -22.5s-18 -20.5 -24 -33.5s-9 -26.5 -9 -40.5c0 -30.667 9.83301 -55.834 29.5 -75.501s46.5 -29.5 80.5 -29.5c14.667 0 28.667 2.83301 42 8.5s25.166 13.167 35.499 22.5s18.5 20.5 24.5 33.5s9 26.5 9 40.5zM412.001 1339
c0 27.333 5.49902 52.667 16.499 76s26 43.5 45 60.5s41.333 30.333 67 40s52.834 14.5 81.501 14.5c29.333 0 56.833 -5 82.5 -15s48 -23.5 67 -40.5s33.833 -37.167 44.5 -60.5s16 -48 16 -74c0 -26.667 -5.66699 -51.5 -17 -74.5s-26.5 -43.167 -45.5 -60.5
s-41.167 -31 -66.5 -41s-52 -15 -80 -15c-29.333 0 -56.833 4.83301 -82.5 14.5s-48 23 -67 40s-34 37.167 -45 60.5s-16.5 48.333 -16.5 75z" />
    <glyph glyph-name="ae" unicode="&#xe6;" horiz-adv-x="1896" 
d="M1786 117c-112.667 -94.667 -250.992 -141.329 -414.992 -139.996c-103.333 -1.33301 -188.333 17.167 -255 55.5s-122.334 96.166 -167.001 173.499c-22 -48.667 -48.167 -86.834 -78.5 -114.501s-64.5 -50 -102.5 -67s-79.833 -29.333 -125.5 -37
s-94.834 -12.167 -147.501 -13.5c-52 0 -99.5 7.16699 -142.5 21.5s-80.167 35 -111.5 62s-55.666 59.833 -72.999 98.5s-26 82.334 -26 131.001s8.83301 91.667 26.5 129s42.667 69 75 95s71.166 46.5 116.499 61.5s96 24.833 152 29.5c58 5.33301 116.667 9.33301 176 12
s119.666 4.66699 180.999 6l-1 21c-4.66699 36.667 -12.334 71.5 -23.001 104.5s-26.334 62 -47.001 87s-47.334 45 -80.001 60s-73.334 22.5 -122.001 22.5c-31.333 0 -61.833 -2.66699 -91.5 -8s-57.5 -13.666 -83.5 -24.999s-49.833 -26.5 -71.5 -45.5
s-40.167 -41.833 -55.5 -68.5l-97 94c20 34 44 63 72 87s59.5 43.667 94.5 59s72.833 26.5 113.5 33.5s84 10.5 130 10.5c42 -1.33301 82 -6.33301 120 -15s72.667 -21.834 104 -39.501s58.5 -39.667 81.5 -66s40.5 -57.5 52.5 -93.5c20.667 38 44.834 70.5 72.501 97.5
s58 49.167 91 66.5s67.667 30 104 38s73.166 12 110.499 12c75.333 0 140.666 -13.5 195.999 -40.5s101.333 -63.833 138 -110.5s63.834 -100.834 81.501 -162.501s26.5 -126.834 26.5 -195.501c0 -4.66699 -0.166992 -12.167 -0.5 -22.5s-1.16602 -20.833 -2.49902 -31.5
h-748v-21c0 -54 6.16699 -100.833 18.5 -140.5s31.666 -76.5 57.999 -110.5s63.666 -60.333 111.999 -79s99.5 -28.334 153.5 -29.001c78.667 0.666992 145.167 14 199.5 40s106.5 61 156.5 105zM870.008 479.005c-25.333 0 -50.333 -0.333984 -75 -1.00098
s-49.667 -1 -75 -1c-54 -1.33301 -106 -4.16602 -156 -8.49902s-94.5 -13 -133.5 -26s-70.167 -31.5 -93.5 -55.5s-35 -56 -35 -96c0 -32 6.33301 -59.5 19 -82.5s29.667 -41.667 51 -56s45.666 -24.833 72.999 -31.5s56 -10 86 -10c64.667 0 118.834 10 162.501 30
s78.5 46.833 104.5 80.5s44.5 72.5 55.5 116.5s16.5 90 16.5 138v3zM1629.01 608.004c0.666992 0.666992 1.00098 1.33301 1.00098 2c0 44.667 -6.16699 84.834 -18.5 120.501s-30.666 67.167 -54.999 94.5s-54.333 49.166 -90 65.499s-76.834 24.5 -123.501 24.5
c-48 0 -90.667 -8 -128 -24s-69 -37.667 -95 -65s-46.333 -59 -61 -95s-23.334 -77.333 -26.001 -124z" />
    <glyph glyph-name="ccedilla" unicode="&#xe7;" horiz-adv-x="1046" 
d="M881 801c-32 40 -70.999 69.3311 -116.999 87.998s-95 28 -147 28c-55.333 0 -104.666 -10.667 -147.999 -32s-80.166 -50.5 -110.499 -87.5s-53.5 -80.333 -69.5 -130s-24 -102.834 -24 -159.501c0 -56 7 -108.333 21 -157s35.333 -91 64 -127s65 -64.167 109 -84.5
s96 -30.5 156 -30.5c112.667 0 213.667 38.667 303 116l46 -138c-48.667 -38.667 -103 -66.667 -163 -84s-126.333 -26 -199 -26c-84.667 0 -158.834 13.833 -222.501 41.5s-116.834 65.334 -159.501 113.001s-74.667 103.5 -96 167.5s-32 132 -32 204
c0 74.667 11.333 145.334 34 212.001s55.667 124.834 99 174.501s96.666 89 159.999 118s135.666 43.5 216.999 43.5c80.667 0 151.334 -12.667 212.001 -38s108 -60.333 142 -105zM444.001 -289.002c29.333 -7.33301 56.667 -13.1641 82 -17.4971s48.333 -6.5 69 -6.5
c42 0 71.5 6.66699 88.5 20s25.5 30.666 25.5 51.999c0 27.333 -10.167 46.333 -30.5 57s-46.5 16 -78.5 16c-2 0 -6.66699 -0.333008 -14 -1l-23 -2l-32 -2l33 190h97l-18 -107c28 -0.666992 54.667 -3.83398 80 -9.50098s47.5 -14.5 66.5 -26.5s34.167 -27.167 45.5 -45.5
s17 -40.833 17 -67.5s-6.16699 -49.834 -18.5 -69.501s-29.333 -36 -51 -49s-47.167 -22.667 -76.5 -29s-61 -9.5 -95 -9.5c-26 0 -54 2.16699 -84 6.5s-60.333 9.5 -91 15.5z" />
    <glyph glyph-name="egrave" unicode="&#xe8;" horiz-adv-x="1173" 
d="M906 609l-1.00098 14c-3.33301 43.333 -11.833 83 -25.5 119s-32.5 67 -56.5 93s-53.167 46.167 -87.5 60.5s-73.166 21.5 -116.499 21.5c-46.667 0 -88.667 -8.16699 -126 -24.5s-69.5 -38.5 -96.5 -66.5s-48.833 -60.667 -65.5 -98s-28 -77 -34 -119h609zM1039 115
c-55.333 -48 -116.668 -82.999 -184.001 -104.999s-143.666 -33 -228.999 -33c-80.667 0 -152.667 13.167 -216 39.5s-116.833 63 -160.5 110s-77 103.167 -100 168.5s-34.5 137 -34.5 215c0 74 11.333 143.667 34 209s55.667 122.666 99 171.999s96.166 88.333 158.499 117
s133.5 43 213.5 43c78.667 0 147 -12.833 205 -38.5s105.667 -61 143 -106s65.166 -98.5 83.499 -160.5s27.5 -129.333 27.5 -202c0 -7.33301 -0.166992 -15.833 -0.5 -25.5s-0.833008 -18.5 -1.5 -26.5h-787l3 -45c4 -50 14.167 -95.667 30.5 -137s38.833 -77 67.5 -107
s63.5 -53.167 104.5 -69.5s87.833 -24.5 140.5 -24.5c70.667 0 135.334 12.333 194.001 37s111.334 60 158.001 106zM355.997 1492h214l247 -320h-129z" />
    <glyph glyph-name="eacute" unicode="&#xe9;" horiz-adv-x="1173" 
d="M906 609l-1.00098 14c-3.33301 43.333 -11.833 83 -25.5 119s-32.5 67 -56.5 93s-53.167 46.167 -87.5 60.5s-73.166 21.5 -116.499 21.5c-46.667 0 -88.667 -8.16699 -126 -24.5s-69.5 -38.5 -96.5 -66.5s-48.833 -60.667 -65.5 -98s-28 -77 -34 -119h609zM1039 115
c-55.333 -48 -116.668 -82.999 -184.001 -104.999s-143.666 -33 -228.999 -33c-80.667 0 -152.667 13.167 -216 39.5s-116.833 63 -160.5 110s-77 103.167 -100 168.5s-34.5 137 -34.5 215c0 74 11.333 143.667 34 209s55.667 122.666 99 171.999s96.166 88.333 158.499 117
s133.5 43 213.5 43c78.667 0 147 -12.833 205 -38.5s105.667 -61 143 -106s65.166 -98.5 83.499 -160.5s27.5 -129.333 27.5 -202c0 -7.33301 -0.166992 -15.833 -0.5 -25.5s-0.833008 -18.5 -1.5 -26.5h-787l3 -45c4 -50 14.167 -95.667 30.5 -137s38.833 -77 67.5 -107
s63.5 -53.167 104.5 -69.5s87.833 -24.5 140.5 -24.5c70.667 0 135.334 12.333 194.001 37s111.334 60 158.001 106zM592.997 1492h212l-308 -320h-130z" />
    <glyph glyph-name="ecircumflex" unicode="&#xea;" horiz-adv-x="1173" 
d="M906 609l-1.00098 14c-3.33301 43.333 -11.833 83 -25.5 119s-32.5 67 -56.5 93s-53.167 46.167 -87.5 60.5s-73.166 21.5 -116.499 21.5c-46.667 0 -88.667 -8.16699 -126 -24.5s-69.5 -38.5 -96.5 -66.5s-48.833 -60.667 -65.5 -98s-28 -77 -34 -119h609zM1039 115
c-55.333 -48 -116.668 -82.999 -184.001 -104.999s-143.666 -33 -228.999 -33c-80.667 0 -152.667 13.167 -216 39.5s-116.833 63 -160.5 110s-77 103.167 -100 168.5s-34.5 137 -34.5 215c0 74 11.333 143.667 34 209s55.667 122.666 99 171.999s96.166 88.333 158.499 117
s133.5 43 213.5 43c78.667 0 147 -12.833 205 -38.5s105.667 -61 143 -106s65.166 -98.5 83.499 -160.5s27.5 -129.333 27.5 -202c0 -7.33301 -0.166992 -15.833 -0.5 -25.5s-0.833008 -18.5 -1.5 -26.5h-787l3 -45c4 -50 14.167 -95.667 30.5 -137s38.833 -77 67.5 -107
s63.5 -53.167 104.5 -69.5s87.833 -24.5 140.5 -24.5c70.667 0 135.334 12.333 194.001 37s111.334 60 158.001 106zM278.997 1170l228 324h157l229 -324h-132l-178 216l-178 -216h-126z" />
    <glyph glyph-name="edieresis" unicode="&#xeb;" horiz-adv-x="1173" 
d="M906 609l-1.00098 14c-3.33301 43.333 -11.833 83 -25.5 119s-32.5 67 -56.5 93s-53.167 46.167 -87.5 60.5s-73.166 21.5 -116.499 21.5c-46.667 0 -88.667 -8.16699 -126 -24.5s-69.5 -38.5 -96.5 -66.5s-48.833 -60.667 -65.5 -98s-28 -77 -34 -119h609zM1039 115
c-55.333 -48 -116.668 -82.999 -184.001 -104.999s-143.666 -33 -228.999 -33c-80.667 0 -152.667 13.167 -216 39.5s-116.833 63 -160.5 110s-77 103.167 -100 168.5s-34.5 137 -34.5 215c0 74 11.333 143.667 34 209s55.667 122.666 99 171.999s96.166 88.333 158.499 117
s133.5 43 213.5 43c78.667 0 147 -12.833 205 -38.5s105.667 -61 143 -106s65.166 -98.5 83.499 -160.5s27.5 -129.333 27.5 -202c0 -7.33301 -0.166992 -15.833 -0.5 -25.5s-0.833008 -18.5 -1.5 -26.5h-787l3 -45c4 -50 14.167 -95.667 30.5 -137s38.833 -77 67.5 -107
s63.5 -53.167 104.5 -69.5s87.833 -24.5 140.5 -24.5c70.667 0 135.334 12.333 194.001 37s111.334 60 158.001 106zM500.997 1246h-163v163h164zM833.997 1246h-164v163h164v-163z" />
    <glyph glyph-name="igrave" unicode="&#xec;" horiz-adv-x="503" 
d="M333 0h-165l-1 1026h165zM21 1492h214l247 -320h-129z" />
    <glyph glyph-name="iacute" unicode="&#xed;" horiz-adv-x="503" 
d="M333 0h-165l-1 1026h165zM260 1492h212l-308 -320h-130z" />
    <glyph glyph-name="icircumflex" unicode="&#xee;" horiz-adv-x="503" 
d="M333 0h-165l-1 1026h165zM-54 1170l228 324h157l229 -324h-132l-178 216l-178 -216h-126z" />
    <glyph glyph-name="idieresis" unicode="&#xef;" horiz-adv-x="503" 
d="M333 0h-165l-1 1026h165zM168 1246h-163v163h164zM501 1246h-164v163h164v-163z" />
    <glyph glyph-name="eth" unicode="&#xf0;" 
d="M653 1490c75.333 -29.333 141.336 -71.666 198.003 -126.999s104 -122 142 -200h197v-137h-145c15.333 -53.333 27.166 -109.5 35.499 -168.5s12.5 -120.833 12.5 -185.5c0 -112 -11.333 -211.167 -34 -297.5s-55.834 -159 -99.501 -218s-97.334 -103.667 -161.001 -134
s-136.167 -45.5 -217.5 -45.5c-75.333 0 -143.5 12 -204.5 36s-112.833 57 -155.5 99s-75.5 91.667 -98.5 149s-34.5 119 -34.5 185s10.667 126.667 32 182s51.833 102.833 91.5 142.5s87.667 70.667 144 93s119.5 33.5 189.5 33.5c83.333 0 156.833 -14 220.5 -42
s114.5 -72 152.5 -132v2c0 114.667 -12 215 -36 301h-262v137h206c-28.667 52 -63.667 97.667 -105 137s-90.333 74.666 -147 105.999zM572.003 757c-52.667 0 -98.335 -8.00098 -137.002 -24.001s-70.667 -38.167 -96 -66.5s-44.166 -61.833 -56.499 -100.5
s-18.5 -80.334 -18.5 -125.001c0 -46 7.33301 -88.667 22 -128s35.5 -73.5 62.5 -102.5s59.5 -51.667 97.5 -68s80.333 -24.5 127 -24.5c58 0 107.833 11.167 149.5 33.5s75.834 51.666 102.501 87.999s46.167 77.333 58.5 123s18.5 91.834 18.5 138.501v18
c0 6.66699 0.333008 12.334 1 17.001c-11.333 32.667 -27.5 62.5 -48.5 89.5s-45.833 50.333 -74.5 70s-60.5 34.834 -95.5 45.501s-72.5 16 -112.5 16z" />
    <glyph glyph-name="ntilde" unicode="&#xf1;" horiz-adv-x="1217" 
d="M333 0l-164.999 -0.00683594v779c0 30.667 -0.333008 60.834 -1 90.501s-1.33398 56.167 -2.00098 79.5c-1.33301 26.667 -2.33301 52.334 -3 77.001h167l4 -142c40 56.667 88.167 98.667 144.5 126s122.833 41 199.5 41c74.667 0 136.334 -12.333 185.001 -37
s87.167 -59.167 115.5 -103.5s48 -97.166 59 -158.499s16.5 -128.666 16.5 -201.999v-550h-165v531c0 58 -2.5 110.833 -7.5 158.5s-15.667 88.334 -32 122.001s-40.5 59.667 -72.5 78s-75 27.5 -129 27.5c-50 0 -94.333 -9.66699 -133 -29s-71.334 -42.666 -98.001 -69.999
s-47.167 -56.166 -61.5 -86.499s-21.5 -56.833 -21.5 -79.5v-652zM930.001 1434.99c-3.33301 -30 -9.83398 -58.001 -19.501 -84.001s-22.834 -48.833 -39.501 -68.5s-36.334 -35 -59.001 -46s-48.334 -16.5 -77.001 -16.5c-20 0 -40.833 3.5 -62.5 10.5
s-43.5 14.833 -65.5 23.5s-43.667 16.5 -65 23.5s-41.333 10.5 -60 10.5c-54 0 -84.333 -28.333 -91 -85h-105c2.66699 31.333 9.33398 59.833 20.001 85.5s24.5 47.834 41.5 66.501s37.167 33 60.5 43s49 15 77 15c23.333 0 45.833 -3.5 67.5 -10.5
s42.834 -14.833 63.501 -23.5s40.834 -16.5 60.501 -23.5s39.167 -10.5 58.5 -10.5c22.667 0 41.834 7.5 57.501 22.5s25.5 37.5 29.5 67.5h108z" />
    <glyph glyph-name="ograve" unicode="&#xf2;" horiz-adv-x="1238" 
d="M620 1051c86 0 161.497 -14 226.497 -42s119.167 -66.333 162.5 -115s76 -105.667 98 -171s33 -135.333 33 -210c0 -72 -11.5 -140.5 -34.5 -205.5s-56.667 -122 -101 -171s-99.166 -87.833 -164.499 -116.5s-140 -43 -224 -43c-85.333 0 -160.666 14 -225.999 42
s-120.166 66 -164.499 114s-78 104.5 -101 169.5s-34.5 134.5 -34.5 208.5s11.667 143.833 35 209.5s57.5 123 102.5 172s100.333 87.667 166 116s141.167 42.5 226.5 42.5zM965.997 511c0 54.667 -7.00098 106.667 -21.001 156s-35.333 92.5 -64 129.5s-65 66.333 -109 88
s-96 32.5 -156 32.5c-58 0 -109 -11.167 -153 -33.5s-80.833 -52.333 -110.5 -90s-52 -81.167 -67 -130.5s-22.5 -100.666 -22.5 -153.999s7.5 -104 22.5 -152s37.333 -90.5 67 -127.5s66.834 -66.333 111.501 -88s96.667 -32.5 156 -32.5c58.667 0 109.667 11 153 33
s79.333 51.5 108 88.5s50 79.667 64 128s21 99.166 21 152.499zM387.996 1492h214l247 -320h-129z" />
    <glyph glyph-name="oacute" unicode="&#xf3;" horiz-adv-x="1238" 
d="M620 1051c86 0 161.497 -14 226.497 -42s119.167 -66.333 162.5 -115s76 -105.667 98 -171s33 -135.333 33 -210c0 -72 -11.5 -140.5 -34.5 -205.5s-56.667 -122 -101 -171s-99.166 -87.833 -164.499 -116.5s-140 -43 -224 -43c-85.333 0 -160.666 14 -225.999 42
s-120.166 66 -164.499 114s-78 104.5 -101 169.5s-34.5 134.5 -34.5 208.5s11.667 143.833 35 209.5s57.5 123 102.5 172s100.333 87.667 166 116s141.167 42.5 226.5 42.5zM965.997 511c0 54.667 -7.00098 106.667 -21.001 156s-35.333 92.5 -64 129.5s-65 66.333 -109 88
s-96 32.5 -156 32.5c-58 0 -109 -11.167 -153 -33.5s-80.833 -52.333 -110.5 -90s-52 -81.167 -67 -130.5s-22.5 -100.666 -22.5 -153.999s7.5 -104 22.5 -152s37.333 -90.5 67 -127.5s66.834 -66.333 111.501 -88s96.667 -32.5 156 -32.5c58.667 0 109.667 11 153 33
s79.333 51.5 108 88.5s50 79.667 64 128s21 99.166 21 152.499zM625.996 1492h212l-308 -320h-130z" />
    <glyph glyph-name="ocircumflex" unicode="&#xf4;" horiz-adv-x="1238" 
d="M620 1051c86 0 161.497 -14 226.497 -42s119.167 -66.333 162.5 -115s76 -105.667 98 -171s33 -135.333 33 -210c0 -72 -11.5 -140.5 -34.5 -205.5s-56.667 -122 -101 -171s-99.166 -87.833 -164.499 -116.5s-140 -43 -224 -43c-85.333 0 -160.666 14 -225.999 42
s-120.166 66 -164.499 114s-78 104.5 -101 169.5s-34.5 134.5 -34.5 208.5s11.667 143.833 35 209.5s57.5 123 102.5 172s100.333 87.667 166 116s141.167 42.5 226.5 42.5zM965.997 511c0 54.667 -7.00098 106.667 -21.001 156s-35.333 92.5 -64 129.5s-65 66.333 -109 88
s-96 32.5 -156 32.5c-58 0 -109 -11.167 -153 -33.5s-80.833 -52.333 -110.5 -90s-52 -81.167 -67 -130.5s-22.5 -100.666 -22.5 -153.999s7.5 -104 22.5 -152s37.333 -90.5 67 -127.5s66.834 -66.333 111.501 -88s96.667 -32.5 156 -32.5c58.667 0 109.667 11 153 33
s79.333 51.5 108 88.5s50 79.667 64 128s21 99.166 21 152.499zM311.996 1170l228 324h157l229 -324h-132l-178 216l-178 -216h-126z" />
    <glyph glyph-name="otilde" unicode="&#xf5;" horiz-adv-x="1238" 
d="M620 1051c86 0 161.497 -14 226.497 -42s119.167 -66.333 162.5 -115s76 -105.667 98 -171s33 -135.333 33 -210c0 -72 -11.5 -140.5 -34.5 -205.5s-56.667 -122 -101 -171s-99.166 -87.833 -164.499 -116.5s-140 -43 -224 -43c-85.333 0 -160.666 14 -225.999 42
s-120.166 66 -164.499 114s-78 104.5 -101 169.5s-34.5 134.5 -34.5 208.5s11.667 143.833 35 209.5s57.5 123 102.5 172s100.333 87.667 166 116s141.167 42.5 226.5 42.5zM965.997 511c0 54.667 -7.00098 106.667 -21.001 156s-35.333 92.5 -64 129.5s-65 66.333 -109 88
s-96 32.5 -156 32.5c-58 0 -109 -11.167 -153 -33.5s-80.833 -52.333 -110.5 -90s-52 -81.167 -67 -130.5s-22.5 -100.666 -22.5 -153.999s7.5 -104 22.5 -152s37.333 -90.5 67 -127.5s66.834 -66.333 111.501 -88s96.667 -32.5 156 -32.5c58.667 0 109.667 11 153 33
s79.333 51.5 108 88.5s50 79.667 64 128s21 99.166 21 152.499zM940.996 1435c-3.33301 -30 -9.83398 -58.001 -19.501 -84.001s-22.834 -48.833 -39.501 -68.5s-36.334 -35 -59.001 -46s-48.334 -16.5 -77.001 -16.5c-20 0 -40.833 3.5 -62.5 10.5s-43.5 14.833 -65.5 23.5
s-43.667 16.5 -65 23.5s-41.333 10.5 -60 10.5c-54 0 -84.333 -28.333 -91 -85h-105c2.66699 31.333 9.33398 59.833 20.001 85.5s24.5 47.834 41.5 66.501s37.167 33 60.5 43s49 15 77 15c23.333 0 45.833 -3.5 67.5 -10.5s42.834 -14.833 63.501 -23.5
s40.834 -16.5 60.501 -23.5s39.167 -10.5 58.5 -10.5c22.667 0 41.834 7.5 57.501 22.5s25.5 37.5 29.5 67.5h108z" />
    <glyph glyph-name="odieresis" unicode="&#xf6;" horiz-adv-x="1238" 
d="M620 1051c86 0 161.497 -14 226.497 -42s119.167 -66.333 162.5 -115s76 -105.667 98 -171s33 -135.333 33 -210c0 -72 -11.5 -140.5 -34.5 -205.5s-56.667 -122 -101 -171s-99.166 -87.833 -164.499 -116.5s-140 -43 -224 -43c-85.333 0 -160.666 14 -225.999 42
s-120.166 66 -164.499 114s-78 104.5 -101 169.5s-34.5 134.5 -34.5 208.5s11.667 143.833 35 209.5s57.5 123 102.5 172s100.333 87.667 166 116s141.167 42.5 226.5 42.5zM965.997 511c0 54.667 -7.00098 106.667 -21.001 156s-35.333 92.5 -64 129.5s-65 66.333 -109 88
s-96 32.5 -156 32.5c-58 0 -109 -11.167 -153 -33.5s-80.833 -52.333 -110.5 -90s-52 -81.167 -67 -130.5s-22.5 -100.666 -22.5 -153.999s7.5 -104 22.5 -152s37.333 -90.5 67 -127.5s66.834 -66.333 111.501 -88s96.667 -32.5 156 -32.5c58.667 0 109.667 11 153 33
s79.333 51.5 108 88.5s50 79.667 64 128s21 99.166 21 152.499zM533.996 1246h-163v163h164zM866.996 1246h-164v163h164v-163z" />
    <glyph glyph-name="divide" unicode="&#xf7;" horiz-adv-x="1458" 
d="M200 485l-2 139h1047l1 -139h-1046zM836 873h-217v210h217v-210zM836 21h-217v210h217v-210z" />
    <glyph glyph-name="oslash" unicode="&#xf8;" horiz-adv-x="1238" 
d="M620 1051c56.667 0 109.996 -6.66797 159.996 -20.001l104 246l103 -32l-107 -252c42.667 -22 80.334 -49.5 113.001 -82.5s59.834 -70.167 81.501 -111.5s38 -86.166 49 -134.499s16.5 -98.833 16.5 -151.5c0 -72 -11.5 -140.5 -34.5 -205.5s-56.667 -122 -101 -171
s-99.166 -87.833 -164.499 -116.5s-140 -43 -224 -43c-56.667 0 -110 6.66699 -160 20l-110 -258l-99 32l111 263c-44 22 -82.667 49.333 -116 82s-61.166 69.5 -83.499 110.5s-39.333 85.5 -51 133.5s-17.5 98.333 -17.5 151c0 74 11.667 143.833 35 209.5
s57.5 123 102.5 172s100.333 87.667 166 116s141.167 42.5 226.5 42.5zM262.996 508.999c0 -34.667 3.16699 -68.502 9.5 -101.502s15.833 -64 28.5 -93s28.5 -55.833 47.5 -80.5s41.167 -46 66.5 -64l310 732c-16.667 4.66699 -34 8.33398 -52 11.001s-37 4 -57 4
c-58 0 -109 -11.167 -153 -33.5s-80.833 -52.333 -110.5 -90s-52 -81.167 -67 -130.5s-22.5 -100.666 -22.5 -153.999zM965.996 510.997c0 72 -11.834 138.168 -35.501 198.501s-60.167 108.833 -109.5 145.5l-311 -731c32.667 -10 69.334 -15 110.001 -15
c58.667 0 109.667 11 153 33s79.333 51.5 108 88.5s50 79.667 64 128s21 99.166 21 152.499z" />
    <glyph glyph-name="ugrave" unicode="&#xf9;" horiz-adv-x="1217" 
d="M878 1026l165.002 0.000976562v-780c0 -44 0.5 -85.5 1.5 -124.5s3.16699 -79.5 6.5 -121.5h-170l-3 135c-77.333 -105.333 -190 -158 -338 -158c-50.667 0 -95.334 5.83301 -134.001 17.5s-72.167 27.5 -100.5 47.5s-52 43.667 -71 71s-34.167 56.666 -45.5 87.999
s-19.5 63.833 -24.5 97.5s-7.5 67.167 -7.5 100.5v627h165v-627c-0.666992 -95.333 19.666 -167.5 60.999 -216.5s106.333 -73.5 195 -73.5c48 0 90.5 8.66699 127.5 26s68.333 41 94 71s45.167 64.833 58.5 104.5s20 81.5 20 125.5v590zM378.002 1492h214l247 -320h-129z
" />
    <glyph glyph-name="uacute" unicode="&#xfa;" horiz-adv-x="1217" 
d="M878 1026l165.002 0.000976562v-780c0 -44 0.5 -85.5 1.5 -124.5s3.16699 -79.5 6.5 -121.5h-170l-3 135c-77.333 -105.333 -190 -158 -338 -158c-50.667 0 -95.334 5.83301 -134.001 17.5s-72.167 27.5 -100.5 47.5s-52 43.667 -71 71s-34.167 56.666 -45.5 87.999
s-19.5 63.833 -24.5 97.5s-7.5 67.167 -7.5 100.5v627h165v-627c-0.666992 -95.333 19.666 -167.5 60.999 -216.5s106.333 -73.5 195 -73.5c48 0 90.5 8.66699 127.5 26s68.333 41 94 71s45.167 64.833 58.5 104.5s20 81.5 20 125.5v590zM615.002 1492h212l-308 -320h-130z
" />
    <glyph glyph-name="ucircumflex" unicode="&#xfb;" horiz-adv-x="1217" 
d="M878 1026l165.002 0.000976562v-780c0 -44 0.5 -85.5 1.5 -124.5s3.16699 -79.5 6.5 -121.5h-170l-3 135c-77.333 -105.333 -190 -158 -338 -158c-50.667 0 -95.334 5.83301 -134.001 17.5s-72.167 27.5 -100.5 47.5s-52 43.667 -71 71s-34.167 56.666 -45.5 87.999
s-19.5 63.833 -24.5 97.5s-7.5 67.167 -7.5 100.5v627h165v-627c-0.666992 -95.333 19.666 -167.5 60.999 -216.5s106.333 -73.5 195 -73.5c48 0 90.5 8.66699 127.5 26s68.333 41 94 71s45.167 64.833 58.5 104.5s20 81.5 20 125.5v590zM301.002 1170l228 324h157l229 -324
h-132l-178 216l-178 -216h-126z" />
    <glyph glyph-name="udieresis" unicode="&#xfc;" horiz-adv-x="1217" 
d="M878 1026l165.002 0.000976562v-780c0 -44 0.5 -85.5 1.5 -124.5s3.16699 -79.5 6.5 -121.5h-170l-3 135c-77.333 -105.333 -190 -158 -338 -158c-50.667 0 -95.334 5.83301 -134.001 17.5s-72.167 27.5 -100.5 47.5s-52 43.667 -71 71s-34.167 56.666 -45.5 87.999
s-19.5 63.833 -24.5 97.5s-7.5 67.167 -7.5 100.5v627h165v-627c-0.666992 -95.333 19.666 -167.5 60.999 -216.5s106.333 -73.5 195 -73.5c48 0 90.5 8.66699 127.5 26s68.333 41 94 71s45.167 64.833 58.5 104.5s20 81.5 20 125.5v590zM523.002 1246h-163v163h164z
M856.002 1246h-164v163h164v-163z" />
    <glyph glyph-name="yacute" unicode="&#xfd;" horiz-adv-x="1069" 
d="M17 1026l181.001 0.000976562l332 -855l341 855h175l-454 -1098c-18 -44 -39.667 -85.667 -65 -125s-54.333 -74.5 -87 -105.5s-68.834 -57.333 -108.501 -79s-83.167 -36.834 -130.5 -45.501l-92 113c56 14.667 102.333 32.667 139 54s66.667 44 90 68
s41.5 48.833 54.5 74.5s23.833 50.5 32.5 74.5l17 49zM541.001 1492h212l-308 -320h-130z" />
    <glyph glyph-name="thorn" unicode="&#xfe;" horiz-adv-x="1239" 
d="M323 -427l-165 -0.000976562v1882h167v-573c42 56 92.333 98.167 151 126.5s122.667 42.5 192 42.5c80.667 0 150.5 -14 209.5 -42s107.833 -65.833 146.5 -113.5s67.5 -103.167 86.5 -166.5s28.5 -130.666 28.5 -201.999c0 -72 -9.83301 -141.167 -29.5 -207.5
s-49 -124.833 -88 -175.5s-88 -91.167 -147 -121.5s-127.833 -45.5 -206.5 -45.5c-144 0 -259 52.667 -345 158v-562zM323 493.999c0 -55.333 7.00098 -106.502 21.001 -153.502s34.5 -87.667 61.5 -122s60.5 -61.166 100.5 -80.499s86 -29 138 -29
c56 0 104.167 11.333 144.5 34s73.333 53 99 91s44.667 81.833 57 131.5s18.5 101.5 18.5 155.5c0 50.667 -5.33301 99.834 -16 147.501s-28.167 90 -52.5 127s-56.5 66.5 -96.5 88.5s-89.333 33 -148 33c-61.333 0 -112.833 -11.667 -154.5 -35
s-75.334 -54.5 -101.001 -93.5s-44 -84 -55 -135s-16.5 -104.167 -16.5 -159.5z" />
    <glyph glyph-name="ydieresis" unicode="&#xff;" horiz-adv-x="1069" 
d="M17 1026l181.001 0.000976562l332 -855l341 855h175l-454 -1098c-18 -44 -39.667 -85.667 -65 -125s-54.333 -74.5 -87 -105.5s-68.834 -57.333 -108.501 -79s-83.167 -36.834 -130.5 -45.501l-92 113c56 14.667 102.333 32.667 139 54s66.667 44 90 68
s41.5 48.833 54.5 74.5s23.833 50.5 32.5 74.5l17 49zM449.001 1246h-163v163h164zM782.001 1246h-164v163h164v-163z" />
    <glyph glyph-name="dotlessi" unicode="&#x131;" horiz-adv-x="503" 
d="M333 0h-165l-1 1026h165z" />
    <glyph glyph-name="Lslash" unicode="&#x141;" horiz-adv-x="1120" 
d="M1073 0h-871v674l-159 -82l-63 121l222 115v628h172v-538l275 143l63 -121l-338 -176v-616h697z" />
    <glyph glyph-name="lslash" unicode="&#x142;" horiz-adv-x="503" 
d="M333 1492v-589l155 81l63 -121l-218 -114v-749h-165v664l-139 -72l-63 121l202 105v674h165z" />
    <glyph glyph-name="OE" unicode="&#x152;" horiz-adv-x="2099" 
d="M1984 0l-832.998 0.000976562v105c-46.667 -41.333 -96.834 -73 -150.501 -95s-110.834 -33 -171.501 -33c-111.333 0 -211.166 17.667 -299.499 53s-163.333 85.666 -225 150.999s-108.834 144.333 -141.501 237s-49 196.334 -49 311.001c0 109.333 16.333 210 49 302
s80 171.5 142 238.5s137.667 119.333 227 157s191 56.5 305 56.5c58.667 0 114.167 -8.83301 166.5 -26.5s101.5 -42.834 147.5 -75.501v75h803v-148h-631v-488h593v-148h-593v-524h661v-148zM827.002 125.001c66.667 0 126.834 12.334 180.501 37.001s101.5 59 143.5 103
v954c-41.333 36.667 -88.5 65.167 -141.5 85.5s-112.833 30.5 -179.5 30.5c-87.333 0 -164 -16.667 -230 -50s-121.5 -78 -166.5 -134s-78.833 -120.833 -101.5 -194.5s-34 -150.834 -34 -231.501c0 -84 11.167 -162.5 33.5 -235.5s55.666 -136.5 99.999 -190.5
s99.5 -96.5 165.5 -127.5s142.667 -46.5 230 -46.5z" />
    <glyph glyph-name="oe" unicode="&#x153;" horiz-adv-x="1970" 
d="M1113 470c0 -51.333 6.33594 -99 19.0029 -143s31.834 -82.167 57.501 -114.5s57.667 -57.666 96 -75.999s83.5 -27.5 135.5 -27.5c68.667 0 131.5 16.5 188.5 49.5s103.167 77.5 138.5 133.5l88 -86c-44.667 -80.667 -104.167 -139.834 -178.5 -177.501
s-156.833 -56.5 -247.5 -56.5s-169.834 19.5 -237.501 58.5s-117.834 98.5 -150.501 178.5l-1 -3c-16 -40.667 -37.667 -75.834 -65 -105.501s-58.833 -54 -94.5 -73s-74.834 -33 -117.501 -42s-87.334 -13.5 -134.001 -13.5c-82 0 -155.167 14 -219.5 42
s-118.5 66.333 -162.5 115s-77.667 105.667 -101 171s-35 135 -35 209s11.667 144 35 210s57.5 123.833 102.5 173.5s100.333 88.834 166 117.501s140.5 43 224.5 43c98.667 0 181.167 -19.5 247.5 -58.5s119.5 -96.833 159.5 -173.5
c36.667 76.667 87.834 134.5 153.501 173.5s144.5 58.5 236.5 58.5c73.333 0 138.166 -12.667 194.499 -38s103.5 -61 141.5 -107s66.667 -101.5 86 -166.5s29 -137.167 29 -216.5v-53zM1695 609c0.666992 44 -4.66699 84.8311 -16 122.498s-28.333 70.334 -51 98.001
s-51 49.167 -85 64.5s-74 23 -120 23s-87.5 -8.5 -124.5 -25.5s-68.833 -39.667 -95.5 -68s-47.667 -61.166 -63 -98.499s-24.333 -76 -27 -116h582zM945.002 510.998c0 57.333 -6.49902 110.833 -19.499 160.5s-33 92.667 -60 129s-61.5 64.833 -103.5 85.5s-92 31 -150 31
c-56.667 0 -106.5 -11.167 -149.5 -33.5s-79.167 -52.333 -108.5 -90s-51.5 -81.167 -66.5 -130.5s-22.5 -101.333 -22.5 -156c0 -54 7.16699 -105 21.5 -153s36.166 -90.167 65.499 -126.5s66.166 -65.166 110.499 -86.499s96.833 -32 157.5 -32c56 0 104.5 11 145.5 33
s74.833 51.5 101.5 88.5s46.334 79.667 59.001 128s19 99.166 19 152.499z" />
    <glyph glyph-name="Scaron" unicode="&#x160;" horiz-adv-x="1244" 
d="M215 271c22 -26.667 47.8369 -49.1641 77.5039 -67.4971s61 -33.333 94 -45s67 -20.167 102 -25.5s69.167 -8 102.5 -8c52.667 0 101 5.16699 145 15.5s81.833 25.666 113.5 45.999s56.334 45.333 74.001 75s26.5 64.167 26.5 103.5c0 44 -11.667 81.5 -35 112.5
s-53.833 58.5 -91.5 82.5s-80.834 45.5 -129.501 64.5l-148.5 58.5c-50.333 20 -99.833 41.5 -148.5 64.5s-91.834 50.333 -129.501 82s-68.167 69 -91.5 112s-35 94.167 -35 153.5c0 64 15 120.167 45 168.5s69.667 88.666 119 120.999s105.333 56.833 168 73.5
s127 25 193 25c38 0 77 -2.33301 117 -7s78.5 -13 115.5 -25s71.333 -27.833 103 -47.5s58.167 -44.5 79.5 -74.5l-83 -112c-20 22 -42.833 40.5 -68.5 55.5s-53 27 -82 36s-58.833 15.5 -89.5 19.5s-61 6 -91 6c-40.667 0 -81.334 -4.16699 -122.001 -12.5
s-77.334 -21.666 -110.001 -39.999s-59.334 -42 -80.001 -71s-31 -64.167 -31 -105.5c0 -42.667 11.667 -79.5 35 -110.5s54 -58.5 92 -82.5s81.167 -46 129.5 -66l148.5 -61c50.667 -20.667 100.167 -43 148.5 -67s91.5 -52.333 129.5 -85s68.667 -70.834 92 -114.501
s35 -95.167 35 -154.5c0 -47.333 -7.66699 -89.833 -23 -127.5s-36.333 -70.834 -63 -99.501s-58 -53.167 -94 -73.5s-74.833 -36.833 -116.5 -49.5s-85.167 -22 -130.5 -28s-90.333 -9 -135 -9c-48.667 0 -95 4.33301 -139 13s-84.667 21 -122 37s-70.833 35.333 -100.5 58
s-54.167 48 -73.5 76zM938.004 1923l-238 -323h-156l-239 323h147l164 -215l168 215h154z" />
    <glyph glyph-name="scaron" unicode="&#x161;" horiz-adv-x="1007" 
d="M790 847c-36 24.667 -79.3291 42.5029 -129.996 53.5029s-103.334 16.5 -158.001 16.5c-30.667 0 -59 -3.33301 -85 -10s-48.5 -16.167 -67.5 -28.5s-34 -27.333 -45 -45s-16.5 -37.5 -16.5 -59.5c0 -23.333 5.66699 -43.333 17 -60s26.666 -31.167 45.999 -43.5
s42 -23.333 68 -33s53.667 -18.834 83 -27.501l85.5 -25c30.333 -8.66699 60.5 -18.834 90.5 -30.501s58.667 -25.334 86 -41.001s51.5 -34.167 72.5 -55.5s37.667 -46.333 50 -75s18.5 -61.667 18.5 -99c0 -52 -12 -97.167 -36 -135.5s-55.667 -70.166 -95 -95.499
s-84.333 -44.333 -135 -57s-102.667 -19 -156 -19c-35.333 0 -70.333 2 -105 6s-67.834 10.667 -99.501 20s-61 21.333 -88 36s-50.167 33 -69.5 55l44 135c18 -21.333 39 -39.666 63 -54.999s49.833 -27.833 77.5 -37.5s56.167 -16.667 85.5 -21s58 -6.5 86 -6.5
c37.333 0 71.666 3.5 102.999 10.5s58.5 17.333 81.5 31s41 30.667 54 51s19.5 43.833 19.5 70.5c0 30.667 -7.33301 55.5 -22 74.5s-35 35.333 -61 49s-57 25.667 -93 36s-75 22.166 -117 35.499c-50 16 -95.167 32.833 -135.5 50.5s-74.5 38.167 -102.5 61.5
s-49.5 50.5 -64.5 81.5s-22.5 67.833 -22.5 110.5c0 47.333 10.833 88.666 32.5 123.999s50.167 64.5 85.5 87.5s75.5 40.167 120.5 51.5s90.833 17 137.5 17c68.667 0 132.167 -6.5 190.5 -19.5s107.833 -35.5 148.5 -67.5zM820.004 1493l-238 -323h-156l-239 323h147
l164 -215l168 215h154z" />
    <glyph glyph-name="Ydieresis" unicode="&#x178;" horiz-adv-x="1266" 
d="M543 0v582l-533 874h191l431 -729l435 729h191l-543 -871v-585h-172zM569 1676h-163v163h164zM902 1676h-164v163h164v-163z" />
    <glyph glyph-name="Zcaron" unicode="&#x17d;" horiz-adv-x="1222" 
d="M1146 0h-1088v92l864 1216h-832v148h1064v-88l-868 -1220h860v-148zM927 1923l-238 -323h-156l-239 323h147l164 -215l168 215h154z" />
    <glyph glyph-name="zcaron" unicode="&#x17e;" horiz-adv-x="958" 
d="M58 89l600 802h-574v135h797v-87l-598 -805h613l2 -134h-840v89zM795 1493l-238 -323h-156l-239 323h147l164 -215l168 215h154z" />
    <glyph glyph-name="florin" unicode="&#x192;" 
d="M332 803l9.99316 140.006h169c4 37.333 8.66699 75.5 14 114.5s12.833 76.667 22.5 113s22.334 70.666 38.001 102.999s35.834 60.5 60.501 84.5s54.834 43 90.501 57s78.5 21 128.5 21c22 0 45.167 -1.66699 69.5 -5s48.833 -8 73.5 -14l-8 -145
c-20 8 -39.333 13.667 -58 17s-35.667 5 -51 5c-29.333 0 -53.833 -3.5 -73.5 -10.5s-36.167 -17 -49.5 -30s-23.833 -29.167 -31.5 -48.5s-13.834 -41.333 -18.501 -66l-36 -196h200l-10 -140h-213l-127 -683c-11.333 -59.333 -24.666 -116.333 -39.999 -171
s-36.166 -102.834 -62.499 -144.501s-59.666 -74.834 -99.999 -99.501s-91.166 -37 -152.499 -37c-29.333 0 -64 5.33301 -104 16l12 138c29.333 -10.667 55.333 -16 78 -16c24.667 0 46.167 5.33301 64.5 16s34.166 25.167 47.499 43.5s24.833 39.666 34.5 63.999
s17.834 50.166 24.501 77.499c16 64 30.5 129.167 43.5 195.5l37.5 200l35.5 201.5c11.667 67.333 23.834 133.666 36.501 198.999h-155z" />
    <glyph glyph-name="uni0200" unicode="&#x200;" horiz-adv-x="1425" 
d="M199 0h-186l604 1456h185l605 -1456h-191l-163 397h-698zM410 545l583.998 -0.000976562l-234 605c-5.33301 12.667 -11 27.5 -17 44.5l-17 48.5c-6.66699 18 -13 36.333 -19 55l-20 -61c-5.33301 -16.667 -11.166 -33.167 -17.499 -49.5
s-11.166 -29.166 -14.499 -38.499zM656.998 1604l-276 313h176l220 -313h-120zM925.998 1604l-275 313h176l217 -313h-118z" />
    <glyph glyph-name="uni0201" unicode="&#x201;" horiz-adv-x="1244" 
d="M582 1051c42 0 80.333 -3.83594 115 -11.5029s66.667 -18.5 96 -32.5s56.333 -31.333 81 -52s47.667 -44 69 -70l6 141h163l-4 -253v-773h-165l2 144c-16 -21.333 -36.167 -42.166 -60.5 -62.499s-51.833 -38.166 -82.5 -53.499s-64.5 -27.666 -101.5 -36.999
s-75.833 -14 -116.5 -14c-57.333 0 -109.333 7.5 -156 22.5s-88.334 35.667 -125.001 62s-68.5 57.166 -95.5 92.499s-49.167 73.333 -66.5 114s-30.333 82.834 -39 126.501s-13 86.834 -13 129.501c0 66 10.167 130.667 30.5 194s51 119.666 92 168.999s92.333 89 154 119
s133.834 45 216.501 45zM601 108.997c46.667 0 90.5 9.50098 131.5 28.501s77 47 108 84s55.667 83 74 138s27.833 118.5 28.5 190.5c0 54 -8.16699 103.333 -24.5 148s-39.5 83.334 -69.5 116.001s-66.5 58 -109.5 76s-91.167 27 -144.5 27
c-40.667 0 -77.334 -5.5 -110.001 -16.5s-61.667 -26.167 -87 -45.5s-47.333 -42 -66 -68s-34 -53.833 -46 -83.5s-20.833 -60.5 -26.5 -92.5s-8.5 -63.667 -8.5 -95c0 -30.667 2.16699 -62.167 6.5 -94.5s11.5 -63.5 21.5 -93.5s23.667 -58.333 41 -85
s38.833 -49.834 64.5 -69.501s56.334 -35.334 92.001 -47.001s77.167 -17.5 124.5 -17.5zM566 1174l-276 313h176l220 -313h-120zM835 1174l-275 313h176l217 -313h-118z" />
    <glyph glyph-name="uni0202" unicode="&#x202;" horiz-adv-x="1425" 
d="M199 0h-186l604 1456h185l605 -1456h-191l-163 397h-698zM410 545l583.998 -0.000976562l-234 605c-5.33301 12.667 -11 27.5 -17 44.5l-17 48.5c-6.66699 18 -13 36.333 -19 55l-20 -61c-5.33301 -16.667 -11.166 -33.167 -17.499 -49.5
s-11.166 -29.166 -14.499 -38.499zM907.998 1648c-5.33301 22.667 -14.6689 42.168 -28.002 58.501s-29.166 29.666 -47.499 39.999s-38.333 18 -60 23s-43.5 7.5 -65.5 7.5s-43.5 -2.16699 -64.5 -6.5s-40.167 -11.666 -57.5 -21.999s-32 -23.666 -44 -39.999
s-20 -36.5 -24 -60.5h-87c6.66699 80.667 34.834 140.167 84.501 178.5s116.167 57.5 199.5 57.5c39.333 0 75.5 -4.83301 108.5 -14.5s61.667 -24.334 86 -44.001s43.833 -44.334 58.5 -74.001s23.667 -64.167 27 -103.5h-86z" />
    <glyph glyph-name="uni0203" unicode="&#x203;" horiz-adv-x="1244" 
d="M582 1051c42 0 80.333 -3.83594 115 -11.5029s66.667 -18.5 96 -32.5s56.333 -31.333 81 -52s47.667 -44 69 -70l6 141h163l-4 -253v-773h-165l2 144c-16 -21.333 -36.167 -42.166 -60.5 -62.499s-51.833 -38.166 -82.5 -53.499s-64.5 -27.666 -101.5 -36.999
s-75.833 -14 -116.5 -14c-57.333 0 -109.333 7.5 -156 22.5s-88.334 35.667 -125.001 62s-68.5 57.166 -95.5 92.499s-49.167 73.333 -66.5 114s-30.333 82.834 -39 126.501s-13 86.834 -13 129.501c0 66 10.167 130.667 30.5 194s51 119.666 92 168.999s92.333 89 154 119
s133.834 45 216.501 45zM601 108.997c46.667 0 90.5 9.50098 131.5 28.501s77 47 108 84s55.667 83 74 138s27.833 118.5 28.5 190.5c0 54 -8.16699 103.333 -24.5 148s-39.5 83.334 -69.5 116.001s-66.5 58 -109.5 76s-91.167 27 -144.5 27
c-40.667 0 -77.334 -5.5 -110.001 -16.5s-61.667 -26.167 -87 -45.5s-47.333 -42 -66 -68s-34 -53.833 -46 -83.5s-20.833 -60.5 -26.5 -92.5s-8.5 -63.667 -8.5 -95c0 -30.667 2.16699 -62.167 6.5 -94.5s11.5 -63.5 21.5 -93.5s23.667 -58.333 41 -85
s38.833 -49.834 64.5 -69.501s56.334 -35.334 92.001 -47.001s77.167 -17.5 124.5 -17.5zM818 1218c-5.33301 22.667 -14.6689 42.168 -28.002 58.501s-29.166 29.666 -47.499 39.999s-38.333 18 -60 23s-43.5 7.5 -65.5 7.5s-43.5 -2.16699 -64.5 -6.5
s-40.167 -11.666 -57.5 -21.999s-32 -23.666 -44 -39.999s-20 -36.5 -24 -60.5h-87c6.66699 80.667 34.834 140.167 84.501 178.5s116.167 57.5 199.5 57.5c39.333 0 75.5 -4.83301 108.5 -14.5s61.667 -24.334 86 -44.001s43.833 -44.334 58.5 -74.001
s23.667 -64.167 27 -103.5h-86z" />
    <glyph glyph-name="uni0204" unicode="&#x204;" horiz-adv-x="1218" 
d="M1102 0h-897v1456h867v-148h-695v-488h657v-148h-657v-524h725v-148zM553 1604l-276 313h176l220 -313h-120zM822 1604l-275 313h176l217 -313h-118z" />
    <glyph glyph-name="uni0205" unicode="&#x205;" horiz-adv-x="1173" 
d="M906 609l-1.00098 14c-3.33301 43.333 -11.833 83 -25.5 119s-32.5 67 -56.5 93s-53.167 46.167 -87.5 60.5s-73.166 21.5 -116.499 21.5c-46.667 0 -88.667 -8.16699 -126 -24.5s-69.5 -38.5 -96.5 -66.5s-48.833 -60.667 -65.5 -98s-28 -77 -34 -119h609zM1039 115
c-55.333 -48 -116.668 -82.999 -184.001 -104.999s-143.666 -33 -228.999 -33c-80.667 0 -152.667 13.167 -216 39.5s-116.833 63 -160.5 110s-77 103.167 -100 168.5s-34.5 137 -34.5 215c0 74 11.333 143.667 34 209s55.667 122.666 99 171.999s96.166 88.333 158.499 117
s133.5 43 213.5 43c78.667 0 147 -12.833 205 -38.5s105.667 -61 143 -106s65.166 -98.5 83.499 -160.5s27.5 -129.333 27.5 -202c0 -7.33301 -0.166992 -15.833 -0.5 -25.5s-0.833008 -18.5 -1.5 -26.5h-787l3 -45c4 -50 14.167 -95.667 30.5 -137s38.833 -77 67.5 -107
s63.5 -53.167 104.5 -69.5s87.833 -24.5 140.5 -24.5c70.667 0 135.334 12.333 194.001 37s111.334 60 158.001 106zM530.997 1174l-276 313h176l220 -313h-120zM799.997 1174l-275 313h176l217 -313h-118z" />
    <glyph glyph-name="uni0206" unicode="&#x206;" horiz-adv-x="1218" 
d="M1102 0h-897v1456h867v-148h-695v-488h657v-148h-657v-524h725v-148zM805 1648c-5.33301 22.667 -14.6689 42.168 -28.002 58.501s-29.166 29.666 -47.499 39.999s-38.333 18 -60 23s-43.5 7.5 -65.5 7.5s-43.5 -2.16699 -64.5 -6.5s-40.167 -11.666 -57.5 -21.999
s-32 -23.666 -44 -39.999s-20 -36.5 -24 -60.5h-87c6.66699 80.667 34.834 140.167 84.501 178.5s116.167 57.5 199.5 57.5c39.333 0 75.5 -4.83301 108.5 -14.5s61.667 -24.334 86 -44.001s43.833 -44.334 58.5 -74.001s23.667 -64.167 27 -103.5h-86z" />
    <glyph glyph-name="uni0207" unicode="&#x207;" horiz-adv-x="1173" 
d="M906 609l-1.00098 14c-3.33301 43.333 -11.833 83 -25.5 119s-32.5 67 -56.5 93s-53.167 46.167 -87.5 60.5s-73.166 21.5 -116.499 21.5c-46.667 0 -88.667 -8.16699 -126 -24.5s-69.5 -38.5 -96.5 -66.5s-48.833 -60.667 -65.5 -98s-28 -77 -34 -119h609zM1039 115
c-55.333 -48 -116.668 -82.999 -184.001 -104.999s-143.666 -33 -228.999 -33c-80.667 0 -152.667 13.167 -216 39.5s-116.833 63 -160.5 110s-77 103.167 -100 168.5s-34.5 137 -34.5 215c0 74 11.333 143.667 34 209s55.667 122.666 99 171.999s96.166 88.333 158.499 117
s133.5 43 213.5 43c78.667 0 147 -12.833 205 -38.5s105.667 -61 143 -106s65.166 -98.5 83.499 -160.5s27.5 -129.333 27.5 -202c0 -7.33301 -0.166992 -15.833 -0.5 -25.5s-0.833008 -18.5 -1.5 -26.5h-787l3 -45c4 -50 14.167 -95.667 30.5 -137s38.833 -77 67.5 -107
s63.5 -53.167 104.5 -69.5s87.833 -24.5 140.5 -24.5c70.667 0 135.334 12.333 194.001 37s111.334 60 158.001 106zM781.997 1218c-5.33301 22.667 -14.6689 42.168 -28.002 58.501s-29.166 29.666 -47.499 39.999s-38.333 18 -60 23s-43.5 7.5 -65.5 7.5
s-43.5 -2.16699 -64.5 -6.5s-40.167 -11.666 -57.5 -21.999s-32 -23.666 -44 -39.999s-20 -36.5 -24 -60.5h-87c6.66699 80.667 34.834 140.167 84.501 178.5s116.167 57.5 199.5 57.5c39.333 0 75.5 -4.83301 108.5 -14.5s61.667 -24.334 86 -44.001
s43.833 -44.334 58.5 -74.001s23.667 -64.167 27 -103.5h-86z" />
    <glyph glyph-name="uni0208" unicode="&#x208;" horiz-adv-x="591" 
d="M382 0h-172v1456h172v-1456zM241 1604l-276 313h176l220 -313h-120zM510 1604l-275 313h176l217 -313h-118z" />
    <glyph glyph-name="uni0209" unicode="&#x209;" horiz-adv-x="503" 
d="M333 0h-165l-1 1026h165zM197 1174l-276 313h176l220 -313h-120zM466 1174l-275 313h176l217 -313h-118z" />
    <glyph glyph-name="uni020A" unicode="&#x20a;" horiz-adv-x="591" 
d="M382 0h-172v1456h172v-1456zM493 1648c-5.33301 22.667 -14.6689 42.168 -28.002 58.501s-29.166 29.666 -47.499 39.999s-38.333 18 -60 23s-43.5 7.5 -65.5 7.5s-43.5 -2.16699 -64.5 -6.5s-40.167 -11.666 -57.5 -21.999s-32 -23.666 -44 -39.999s-20 -36.5 -24 -60.5
h-87c6.66699 80.667 34.834 140.167 84.501 178.5s116.167 57.5 199.5 57.5c39.333 0 75.5 -4.83301 108.5 -14.5s61.667 -24.334 86 -44.001s43.833 -44.334 58.5 -74.001s23.667 -64.167 27 -103.5h-86z" />
    <glyph glyph-name="uni020B" unicode="&#x20b;" horiz-adv-x="503" 
d="M328 1462v-155h-153v155h153zM167 1026h165v-1026h-165v1026zM449 1218c-5.33301 22.667 -14.6689 42.168 -28.002 58.501s-29.166 29.666 -47.499 39.999s-38.333 18 -60 23s-43.5 7.5 -65.5 7.5s-43.5 -2.16699 -64.5 -6.5s-40.167 -11.666 -57.5 -21.999
s-32 -23.666 -44 -39.999s-20 -36.5 -24 -60.5h-87c6.66699 80.667 34.834 140.167 84.501 178.5s116.167 57.5 199.5 57.5c39.333 0 75.5 -4.83301 108.5 -14.5s61.667 -24.334 86 -44.001s43.833 -44.334 58.5 -74.001s23.667 -64.167 27 -103.5h-86z" />
    <glyph glyph-name="uni020C" unicode="&#x20c;" horiz-adv-x="1663" 
d="M1544 726c0 -110 -16.167 -210.833 -48.5 -302.5s-79.166 -170.667 -140.499 -237s-136.333 -117.833 -225 -154.5s-189 -55 -301 -55c-111.333 0 -211.166 17.667 -299.499 53s-163.333 85.666 -225 150.999s-108.834 144.333 -141.501 237s-49 196.334 -49 311.001
c0 109.333 16.333 210 49 302s80 171.5 142 238.5s137.667 119.333 227 157s191 56.5 305 56.5c108.667 0 206.667 -18 294 -54s161.666 -87 222.999 -153s108.333 -145.5 141 -238.5s49 -196.833 49 -311.5zM298 725c0 -84 11.168 -162.498 33.501 -235.498
s55.666 -136.5 99.999 -190.5s99.5 -96.5 165.5 -127.5s142.667 -46.5 230 -46.5c88 0 165.167 15.5 231.5 46.5s121.5 73.667 165.5 128s77 118.666 99 192.999s33 154.833 33 241.5c0 84.667 -10.833 163.667 -32.5 237s-54.5 137 -98.5 191s-98.833 96.333 -164.5 127
s-142.5 46 -230.5 46c-87.333 0 -164 -16.667 -230 -50s-121.5 -78 -166.5 -134s-78.833 -120.833 -101.5 -194.5s-34 -150.834 -34 -231.501zM776.001 1604l-276 313h176l220 -313h-120zM1045 1604l-275 313h176l217 -313h-118z" />
    <glyph glyph-name="uni020D" unicode="&#x20d;" horiz-adv-x="1238" 
d="M620 1051c86 0 161.497 -14 226.497 -42s119.167 -66.333 162.5 -115s76 -105.667 98 -171s33 -135.333 33 -210c0 -72 -11.5 -140.5 -34.5 -205.5s-56.667 -122 -101 -171s-99.166 -87.833 -164.499 -116.5s-140 -43 -224 -43c-85.333 0 -160.666 14 -225.999 42
s-120.166 66 -164.499 114s-78 104.5 -101 169.5s-34.5 134.5 -34.5 208.5s11.667 143.833 35 209.5s57.5 123 102.5 172s100.333 87.667 166 116s141.167 42.5 226.5 42.5zM965.997 511c0 54.667 -7.00098 106.667 -21.001 156s-35.333 92.5 -64 129.5s-65 66.333 -109 88
s-96 32.5 -156 32.5c-58 0 -109 -11.167 -153 -33.5s-80.833 -52.333 -110.5 -90s-52 -81.167 -67 -130.5s-22.5 -100.666 -22.5 -153.999s7.5 -104 22.5 -152s37.333 -90.5 67 -127.5s66.834 -66.333 111.501 -88s96.667 -32.5 156 -32.5c58.667 0 109.667 11 153 33
s79.333 51.5 108 88.5s50 79.667 64 128s21 99.166 21 152.499zM562.996 1174l-276 313h176l220 -313h-120zM831.996 1174l-275 313h176l217 -313h-118z" />
    <glyph glyph-name="uni020E" unicode="&#x20e;" horiz-adv-x="1663" 
d="M1544 726c0 -110 -16.167 -210.833 -48.5 -302.5s-79.166 -170.667 -140.499 -237s-136.333 -117.833 -225 -154.5s-189 -55 -301 -55c-111.333 0 -211.166 17.667 -299.499 53s-163.333 85.666 -225 150.999s-108.834 144.333 -141.501 237s-49 196.334 -49 311.001
c0 109.333 16.333 210 49 302s80 171.5 142 238.5s137.667 119.333 227 157s191 56.5 305 56.5c108.667 0 206.667 -18 294 -54s161.666 -87 222.999 -153s108.333 -145.5 141 -238.5s49 -196.833 49 -311.5zM298 725c0 -84 11.168 -162.498 33.501 -235.498
s55.666 -136.5 99.999 -190.5s99.5 -96.5 165.5 -127.5s142.667 -46.5 230 -46.5c88 0 165.167 15.5 231.5 46.5s121.5 73.667 165.5 128s77 118.666 99 192.999s33 154.833 33 241.5c0 84.667 -10.833 163.667 -32.5 237s-54.5 137 -98.5 191s-98.833 96.333 -164.5 127
s-142.5 46 -230.5 46c-87.333 0 -164 -16.667 -230 -50s-121.5 -78 -166.5 -134s-78.833 -120.833 -101.5 -194.5s-34 -150.834 -34 -231.501zM1027 1648c-5.33301 22.667 -14.6689 42.168 -28.002 58.501s-29.166 29.666 -47.499 39.999s-38.333 18 -60 23
s-43.5 7.5 -65.5 7.5s-43.5 -2.16699 -64.5 -6.5s-40.167 -11.666 -57.5 -21.999s-32 -23.666 -44 -39.999s-20 -36.5 -24 -60.5h-87c6.66699 80.667 34.834 140.167 84.501 178.5s116.167 57.5 199.5 57.5c39.333 0 75.5 -4.83301 108.5 -14.5s61.667 -24.334 86 -44.001
s43.833 -44.334 58.5 -74.001s23.667 -64.167 27 -103.5h-86z" />
    <glyph glyph-name="uni020F" unicode="&#x20f;" horiz-adv-x="1238" 
d="M620 1051c86 0 161.497 -14 226.497 -42s119.167 -66.333 162.5 -115s76 -105.667 98 -171s33 -135.333 33 -210c0 -72 -11.5 -140.5 -34.5 -205.5s-56.667 -122 -101 -171s-99.166 -87.833 -164.499 -116.5s-140 -43 -224 -43c-85.333 0 -160.666 14 -225.999 42
s-120.166 66 -164.499 114s-78 104.5 -101 169.5s-34.5 134.5 -34.5 208.5s11.667 143.833 35 209.5s57.5 123 102.5 172s100.333 87.667 166 116s141.167 42.5 226.5 42.5zM965.997 511c0 54.667 -7.00098 106.667 -21.001 156s-35.333 92.5 -64 129.5s-65 66.333 -109 88
s-96 32.5 -156 32.5c-58 0 -109 -11.167 -153 -33.5s-80.833 -52.333 -110.5 -90s-52 -81.167 -67 -130.5s-22.5 -100.666 -22.5 -153.999s7.5 -104 22.5 -152s37.333 -90.5 67 -127.5s66.834 -66.333 111.501 -88s96.667 -32.5 156 -32.5c58.667 0 109.667 11 153 33
s79.333 51.5 108 88.5s50 79.667 64 128s21 99.166 21 152.499zM814.996 1218c-5.33301 22.667 -14.6689 42.168 -28.002 58.501s-29.166 29.666 -47.499 39.999s-38.333 18 -60 23s-43.5 7.5 -65.5 7.5s-43.5 -2.16699 -64.5 -6.5s-40.167 -11.666 -57.5 -21.999
s-32 -23.666 -44 -39.999s-20 -36.5 -24 -60.5h-87c6.66699 80.667 34.834 140.167 84.501 178.5s116.167 57.5 199.5 57.5c39.333 0 75.5 -4.83301 108.5 -14.5s61.667 -24.334 86 -44.001s43.833 -44.334 58.5 -74.001s23.667 -64.167 27 -103.5h-86z" />
    <glyph glyph-name="uni0210" unicode="&#x210;" horiz-adv-x="1377" 
d="M377 652l-0.000976562 -651.999h-172v1456h356c39.333 0 82.5 -0.666992 129.5 -2s94.167 -5.66602 141.5 -12.999s93 -18.833 137 -34.5s83.167 -37.5 117.5 -65.5s61.666 -63.833 81.999 -107.5s30.5 -96.834 30.5 -159.501c0 -46 -7.33301 -88.333 -22 -127
s-35.667 -73.334 -63 -104.001s-60.166 -56.667 -98.499 -78s-80.833 -38 -127.5 -50h1c40.667 -13.333 74.167 -33 100.5 -59s50.166 -59.5 71.499 -100.5s42.333 -89.667 63 -146s46 -121.5 76 -195.5l87 -214h-188l-153 419c-16.667 45.333 -33.167 83 -49.5 113
s-35.666 53.833 -57.999 71.5s-48.666 30.167 -78.999 37.5s-67.833 11 -112.5 11h-270zM376.999 799.001l265.998 0.00195312c44.667 0 89.334 4 134.001 12s84.834 21.667 120.501 41s64.5 45.666 86.5 78.999s33 75.666 33 126.999c0 50 -9.16699 91.167 -27.5 123.5
s-43.833 57.833 -76.5 76.5s-71 31.667 -115 39s-92 11 -144 11h-277v-509zM632.997 1604l-276 313h176l220 -313h-120zM901.997 1604l-275 313h176l217 -313h-118z" />
    <glyph glyph-name="uni0211" unicode="&#x211;" horiz-adv-x="737" 
d="M332 0l-165.001 0.000976562v779c0 42 -0.666992 84 -2 126l-4 121h165l6 -155c28 56.667 66 100.667 114 132s101.333 47 160 47c38.667 0 74.667 -4 108 -12l2 -155c-14 7.33301 -31 13.166 -51 17.499s-41.333 6.5 -64 6.5c-40 0 -76.667 -7.83301 -110 -23.5
s-61.666 -38.167 -84.999 -67.5s-41.5 -65 -54.5 -107s-19.5 -89 -19.5 -141v-568zM313.999 1174l-276 313h176l220 -313h-120zM582.999 1174l-275 313h176l217 -313h-118z" />
    <glyph glyph-name="uni0212" unicode="&#x212;" horiz-adv-x="1377" 
d="M377 652l-0.000976562 -651.999h-172v1456h356c39.333 0 82.5 -0.666992 129.5 -2s94.167 -5.66602 141.5 -12.999s93 -18.833 137 -34.5s83.167 -37.5 117.5 -65.5s61.666 -63.833 81.999 -107.5s30.5 -96.834 30.5 -159.501c0 -46 -7.33301 -88.333 -22 -127
s-35.667 -73.334 -63 -104.001s-60.166 -56.667 -98.499 -78s-80.833 -38 -127.5 -50h1c40.667 -13.333 74.167 -33 100.5 -59s50.166 -59.5 71.499 -100.5s42.333 -89.667 63 -146s46 -121.5 76 -195.5l87 -214h-188l-153 419c-16.667 45.333 -33.167 83 -49.5 113
s-35.666 53.833 -57.999 71.5s-48.666 30.167 -78.999 37.5s-67.833 11 -112.5 11h-270zM376.999 799.001l265.998 0.00195312c44.667 0 89.334 4 134.001 12s84.834 21.667 120.501 41s64.5 45.666 86.5 78.999s33 75.666 33 126.999c0 50 -9.16699 91.167 -27.5 123.5
s-43.833 57.833 -76.5 76.5s-71 31.667 -115 39s-92 11 -144 11h-277v-509zM883.997 1648c-5.33301 22.667 -14.6689 42.168 -28.002 58.501s-29.166 29.666 -47.499 39.999s-38.333 18 -60 23s-43.5 7.5 -65.5 7.5s-43.5 -2.16699 -64.5 -6.5
s-40.167 -11.666 -57.5 -21.999s-32 -23.666 -44 -39.999s-20 -36.5 -24 -60.5h-87c6.66699 80.667 34.834 140.167 84.501 178.5s116.167 57.5 199.5 57.5c39.333 0 75.5 -4.83301 108.5 -14.5s61.667 -24.334 86 -44.001s43.833 -44.334 58.5 -74.001
s23.667 -64.167 27 -103.5h-86z" />
    <glyph glyph-name="uni0213" unicode="&#x213;" horiz-adv-x="737" 
d="M332 0l-165.001 0.000976562v779c0 42 -0.666992 84 -2 126l-4 121h165l6 -155c28 56.667 66 100.667 114 132s101.333 47 160 47c38.667 0 74.667 -4 108 -12l2 -155c-14 7.33301 -31 13.166 -51 17.499s-41.333 6.5 -64 6.5c-40 0 -76.667 -7.83301 -110 -23.5
s-61.666 -38.167 -84.999 -67.5s-41.5 -65 -54.5 -107s-19.5 -89 -19.5 -141v-568zM563.999 1218c-5.33301 22.667 -14.6689 42.168 -28.002 58.501s-29.166 29.666 -47.499 39.999s-38.333 18 -60 23s-43.5 7.5 -65.5 7.5s-43.5 -2.16699 -64.5 -6.5
s-40.167 -11.666 -57.5 -21.999s-32 -23.666 -44 -39.999s-20 -36.5 -24 -60.5h-87c6.66699 80.667 34.834 140.167 84.501 178.5s116.167 57.5 199.5 57.5c39.333 0 75.5 -4.83301 108.5 -14.5s61.667 -24.334 86 -44.001s43.833 -44.334 58.5 -74.001
s23.667 -64.167 27 -103.5h-86z" />
    <glyph glyph-name="uni0214" unicode="&#x214;" horiz-adv-x="1532" 
d="M191 1456l171.998 0.000976562v-910c0 -136 33.667 -240.167 101 -312.5s167 -108.5 299 -108.5c60.667 0 115.834 9.5 165.501 28.5s92 46.333 127 82s62 79.167 81 130.5s28.5 109 28.5 173v917h172l-1 -905c-0.666992 -90 -13.167 -170.667 -37.5 -242
s-60.666 -131.5 -108.999 -180.5s-108.666 -86.5 -180.999 -112.5s-156.5 -39 -252.5 -39c-104 0 -192 13.667 -264 41s-130.333 65.833 -175 115.5s-76.834 109.167 -96.501 178.5s-29.5 145.666 -29.5 228.999v915zM709.998 1604l-276 313h176l220 -313h-120z
M978.998 1604l-275 313h176l217 -313h-118z" />
    <glyph glyph-name="uni0215" unicode="&#x215;" horiz-adv-x="1217" 
d="M878 1026l165.002 0.000976562v-780c0 -44 0.5 -85.5 1.5 -124.5s3.16699 -79.5 6.5 -121.5h-170l-3 135c-77.333 -105.333 -190 -158 -338 -158c-50.667 0 -95.334 5.83301 -134.001 17.5s-72.167 27.5 -100.5 47.5s-52 43.667 -71 71s-34.167 56.666 -45.5 87.999
s-19.5 63.833 -24.5 97.5s-7.5 67.167 -7.5 100.5v627h165v-627c-0.666992 -95.333 19.666 -167.5 60.999 -216.5s106.333 -73.5 195 -73.5c48 0 90.5 8.66699 127.5 26s68.333 41 94 71s45.167 64.833 58.5 104.5s20 81.5 20 125.5v590zM553.002 1174l-276 313h176
l220 -313h-120zM822.002 1174l-275 313h176l217 -313h-118z" />
    <glyph glyph-name="uni0216" unicode="&#x216;" horiz-adv-x="1532" 
d="M191 1456l171.998 0.000976562v-910c0 -136 33.667 -240.167 101 -312.5s167 -108.5 299 -108.5c60.667 0 115.834 9.5 165.501 28.5s92 46.333 127 82s62 79.167 81 130.5s28.5 109 28.5 173v917h172l-1 -905c-0.666992 -90 -13.167 -170.667 -37.5 -242
s-60.666 -131.5 -108.999 -180.5s-108.666 -86.5 -180.999 -112.5s-156.5 -39 -252.5 -39c-104 0 -192 13.667 -264 41s-130.333 65.833 -175 115.5s-76.834 109.167 -96.501 178.5s-29.5 145.666 -29.5 228.999v915zM961.998 1648
c-5.33301 22.667 -14.6689 42.168 -28.002 58.501s-29.166 29.666 -47.499 39.999s-38.333 18 -60 23s-43.5 7.5 -65.5 7.5s-43.5 -2.16699 -64.5 -6.5s-40.167 -11.666 -57.5 -21.999s-32 -23.666 -44 -39.999s-20 -36.5 -24 -60.5h-87
c6.66699 80.667 34.834 140.167 84.501 178.5s116.167 57.5 199.5 57.5c39.333 0 75.5 -4.83301 108.5 -14.5s61.667 -24.334 86 -44.001s43.833 -44.334 58.5 -74.001s23.667 -64.167 27 -103.5h-86z" />
    <glyph glyph-name="uni0217" unicode="&#x217;" horiz-adv-x="1217" 
d="M878 1026l165.002 0.000976562v-780c0 -44 0.5 -85.5 1.5 -124.5s3.16699 -79.5 6.5 -121.5h-170l-3 135c-77.333 -105.333 -190 -158 -338 -158c-50.667 0 -95.334 5.83301 -134.001 17.5s-72.167 27.5 -100.5 47.5s-52 43.667 -71 71s-34.167 56.666 -45.5 87.999
s-19.5 63.833 -24.5 97.5s-7.5 67.167 -7.5 100.5v627h165v-627c-0.666992 -95.333 19.666 -167.5 60.999 -216.5s106.333 -73.5 195 -73.5c48 0 90.5 8.66699 127.5 26s68.333 41 94 71s45.167 64.833 58.5 104.5s20 81.5 20 125.5v590zM804.002 1218
c-5.33301 22.667 -14.6689 42.168 -28.002 58.501s-29.166 29.666 -47.499 39.999s-38.333 18 -60 23s-43.5 7.5 -65.5 7.5s-43.5 -2.16699 -64.5 -6.5s-40.167 -11.666 -57.5 -21.999s-32 -23.666 -44 -39.999s-20 -36.5 -24 -60.5h-87
c6.66699 80.667 34.834 140.167 84.501 178.5s116.167 57.5 199.5 57.5c39.333 0 75.5 -4.83301 108.5 -14.5s61.667 -24.334 86 -44.001s43.833 -44.334 58.5 -74.001s23.667 -64.167 27 -103.5h-86z" />
    <glyph glyph-name="uni0218" unicode="&#x218;" horiz-adv-x="1174" 
d="M215 271c22 -26.667 47.8369 -49.1641 77.5039 -67.4971s61 -33.333 94 -45s67 -20.167 102 -25.5s69.167 -8 102.5 -8c52.667 0 101 5.16699 145 15.5s81.833 25.666 113.5 45.999s56.334 45.333 74.001 75s26.5 64.167 26.5 103.5c0 44 -11.667 81.5 -35 112.5
s-53.833 58.5 -91.5 82.5s-80.834 45.5 -129.501 64.5l-148.5 58.5c-50.333 20 -99.833 41.5 -148.5 64.5s-91.834 50.333 -129.501 82s-68.167 69 -91.5 112s-35 94.167 -35 153.5c0 64 15 120.167 45 168.5s69.667 88.666 119 120.999s105.333 56.833 168 73.5
s127 25 193 25c38 0 77 -2.33301 117 -7s78.5 -13 115.5 -25s71.333 -27.833 103 -47.5s58.167 -44.5 79.5 -74.5l-83 -112c-20 22 -42.833 40.5 -68.5 55.5s-53 27 -82 36s-58.833 15.5 -89.5 19.5s-61 6 -91 6c-40.667 0 -81.334 -4.16699 -122.001 -12.5
s-77.334 -21.666 -110.001 -39.999s-59.334 -42 -80.001 -71s-31 -64.167 -31 -105.5c0 -42.667 11.667 -79.5 35 -110.5s54 -58.5 92 -82.5s81.167 -46 129.5 -66l148.5 -61c50.667 -20.667 100.167 -43 148.5 -67s91.5 -52.333 129.5 -85s68.667 -70.834 92 -114.501
s35 -95.167 35 -154.5c0 -47.333 -7.66699 -89.833 -23 -127.5s-36.333 -70.834 -63 -99.501s-58 -53.167 -94 -73.5s-74.833 -36.833 -116.5 -49.5s-85.167 -22 -130.5 -28s-90.333 -9 -135 -9c-48.667 0 -95 4.33301 -139 13s-84.667 21 -122 37s-70.833 35.333 -100.5 58
s-54.167 48 -73.5 76zM547.004 -161.997h187l-163 -463h-131z" />
    <glyph glyph-name="uni0219" unicode="&#x219;" horiz-adv-x="729" 
d="M790 847c-36 24.667 -79.3291 42.5029 -129.996 53.5029s-103.334 16.5 -158.001 16.5c-30.667 0 -59 -3.33301 -85 -10s-48.5 -16.167 -67.5 -28.5s-34 -27.333 -45 -45s-16.5 -37.5 -16.5 -59.5c0 -23.333 5.66699 -43.333 17 -60s26.666 -31.167 45.999 -43.5
s42 -23.333 68 -33s53.667 -18.834 83 -27.501l85.5 -25c30.333 -8.66699 60.5 -18.834 90.5 -30.501s58.667 -25.334 86 -41.001s51.5 -34.167 72.5 -55.5s37.667 -46.333 50 -75s18.5 -61.667 18.5 -99c0 -52 -12 -97.167 -36 -135.5s-55.667 -70.166 -95 -95.499
s-84.333 -44.333 -135 -57s-102.667 -19 -156 -19c-35.333 0 -70.333 2 -105 6s-67.834 10.667 -99.501 20s-61 21.333 -88 36s-50.167 33 -69.5 55l44 135c18 -21.333 39 -39.666 63 -54.999s49.833 -27.833 77.5 -37.5s56.167 -16.667 85.5 -21s58 -6.5 86 -6.5
c37.333 0 71.666 3.5 102.999 10.5s58.5 17.333 81.5 31s41 30.667 54 51s19.5 43.833 19.5 70.5c0 30.667 -7.33301 55.5 -22 74.5s-35 35.333 -61 49s-57 25.667 -93 36s-75 22.166 -117 35.499c-50 16 -95.167 32.833 -135.5 50.5s-74.5 38.167 -102.5 61.5
s-49.5 50.5 -64.5 81.5s-22.5 67.833 -22.5 110.5c0 47.333 10.833 88.666 32.5 123.999s50.167 64.5 85.5 87.5s75.5 40.167 120.5 51.5s90.833 17 137.5 17c68.667 0 132.167 -6.5 190.5 -19.5s107.833 -35.5 148.5 -67.5zM324.004 -161.997h187l-163 -463h-131z" />
    <glyph glyph-name="uni021A" unicode="&#x21a;" horiz-adv-x="1174" 
d="M501 0v1308h-469v148h1113v-148h-472v-1308h-172zM547 -162h187l-163 -463h-131z" />
    <glyph glyph-name="uni021B" unicode="&#x21b;" horiz-adv-x="729" 
d="M243 919l-203 0.00195312v107h203l5 272l160 47v-319h256v-107h-256v-613c0 -22.667 0.666992 -45.834 2 -69.501s5.83301 -45.334 13.5 -65.001s19.5 -35.667 35.5 -48s38.667 -18.5 68 -18.5c21.333 0 43.666 2.83301 66.999 8.5s49 13.5 77 23.5l-1 -123
c-23.333 -13.333 -48.666 -22.833 -75.999 -28.5s-58.333 -8.5 -93 -8.5c-56 0 -100.833 9.5 -134.5 28.5s-59.667 44.5 -78 76.5s-30.5 69.333 -36.5 112s-9 87.667 -9 135v590zM324 -161.998h187l-163 -463h-131z" />
    <glyph glyph-name="circumflex" unicode="&#x2c6;" horiz-adv-x="699" 
d="M35 1170l228 324h157l229 -324h-132l-178 216l-178 -216h-126z" />
    <glyph glyph-name="caron" unicode="&#x2c7;" horiz-adv-x="699" 
d="M662 1493l-238 -323h-156l-239 323h147l164 -215l168 215h154z" />
    <glyph glyph-name="breve" unicode="&#x2d8;" horiz-adv-x="629" 
d="M596 1454c-3.33301 -39.333 -12.3301 -73.832 -26.9971 -103.499s-34.167 -54.334 -58.5 -74.001s-53 -34.334 -86 -44.001s-69.167 -14.5 -108.5 -14.5c-83.333 0 -149.833 19.167 -199.5 57.5s-77.834 97.833 -84.501 178.5h87c4 -24 12 -44.167 24 -60.5
s26.667 -29.666 44 -39.999s36.5 -17.666 57.5 -21.999s42.5 -6.5 64.5 -6.5s43.833 2.5 65.5 7.5s41.667 12.667 60 23s34.166 23.666 47.499 39.999s22.666 35.833 27.999 58.5h86z" />
    <glyph glyph-name="dotaccent" unicode="&#x2d9;" horiz-adv-x="524" 
d="M186 1246l-2 163h157l3 -163h-158z" />
    <glyph glyph-name="ring" unicode="&#x2da;" horiz-adv-x="605" 
d="M410 1340c0 14.667 -2.83203 28.334 -8.49902 41.001s-13.5 23.667 -23.5 33s-21.833 16.833 -35.5 22.5s-28.167 8.5 -43.5 8.5c-14.667 0 -28.667 -2.83301 -42 -8.5s-25 -13.167 -35 -22.5s-18 -20.5 -24 -33.5s-9 -26.5 -9 -40.5
c0 -30.667 9.83301 -55.834 29.5 -75.501s46.5 -29.5 80.5 -29.5c14.667 0 28.667 2.83301 42 8.5s25.166 13.167 35.499 22.5s18.5 20.5 24.5 33.5s9 26.5 9 40.5zM90.001 1339c0 27.333 5.49902 52.667 16.499 76s26 43.5 45 60.5s41.333 30.333 67 40
s52.834 14.5 81.501 14.5c29.333 0 56.833 -5 82.5 -15s48 -23.5 67 -40.5s33.833 -37.167 44.5 -60.5s16 -48 16 -74c0 -26.667 -5.66699 -51.5 -17 -74.5s-26.5 -43.167 -45.5 -60.5s-41.167 -31 -66.5 -41s-52 -15 -80 -15c-29.333 0 -56.833 4.83301 -82.5 14.5
s-48 23 -67 40s-34 37.167 -45 60.5s-16.5 48.333 -16.5 75z" />
    <glyph glyph-name="ogonek" unicode="&#x2db;" horiz-adv-x="508" 
d="M289 -281c15.333 0 29.334 0.667969 42.001 2.00098s25 3.16602 37 5.49902s24 5.5 36 9.5s25 8.66699 39 14v-111c-10 -4 -22 -7.83301 -36 -11.5s-29 -6.66699 -45 -9s-32.333 -4.33301 -49 -6s-32.334 -2.5 -47.001 -2.5c-30.667 0 -59.167 3.66699 -85.5 11
s-49.333 18 -69 32s-35.167 31.167 -46.5 51.5s-17 43.833 -17 70.5c0 25.333 6.16699 49.5 18.5 72.5s28.5 44.333 48.5 64s42.833 38 68.5 55s52.167 32.167 79.5 45.5l129 -12c-29.333 -18 -56.333 -35.5 -81 -52.5s-46 -33.667 -64 -50s-32.167 -32.5 -42.5 -48.5
s-15.5 -32 -15.5 -48c0 -12.667 3 -24 9 -34s13.667 -18.5 23 -25.5s20 -12.5 32 -16.5s24 -6 36 -6z" />
    <glyph glyph-name="tilde" unicode="&#x2dc;" horiz-adv-x="663" 
d="M658 1435c-3.33301 -30 -9.83398 -58.001 -19.501 -84.001s-22.834 -48.833 -39.501 -68.5s-36.334 -35 -59.001 -46s-48.334 -16.5 -77.001 -16.5c-20 0 -40.833 3.5 -62.5 10.5s-43.5 14.833 -65.5 23.5s-43.667 16.5 -65 23.5s-41.333 10.5 -60 10.5
c-54 0 -84.333 -28.333 -91 -85h-105c2.66699 31.333 9.33398 59.833 20.001 85.5s24.5 47.834 41.5 66.501s37.167 33 60.5 43s49 15 77 15c23.333 0 45.833 -3.5 67.5 -10.5s42.834 -14.833 63.501 -23.5s40.834 -16.5 60.501 -23.5s39.167 -10.5 58.5 -10.5
c22.667 0 41.834 7.5 57.501 22.5s25.5 37.5 29.5 67.5h108z" />
    <glyph glyph-name="hungarumlaut" unicode="&#x2dd;" horiz-adv-x="969" 
d="M429 1174l220 313h176l-276 -313h-120zM162 1174l217 313h176l-275 -313h-118z" />
    <glyph glyph-name="uni030F" unicode="&#x30f;" horiz-adv-x="969" 
d="M438 1174l-276 313h176l220 -313h-120zM707 1174l-275 313h176l217 -313h-118z" />
    <glyph glyph-name="uni0311" unicode="&#x311;" horiz-adv-x="629" 
d="M510 1218c-5.33301 22.667 -14.6689 42.168 -28.002 58.501s-29.166 29.666 -47.499 39.999s-38.333 18 -60 23s-43.5 7.5 -65.5 7.5s-43.5 -2.16699 -64.5 -6.5s-40.167 -11.666 -57.5 -21.999s-32 -23.666 -44 -39.999s-20 -36.5 -24 -60.5h-87
c6.66699 80.667 34.834 140.167 84.501 178.5s116.167 57.5 199.5 57.5c39.333 0 75.5 -4.83301 108.5 -14.5s61.667 -24.334 86 -44.001s43.833 -44.334 58.5 -74.001s23.667 -64.167 27 -103.5h-86z" />
    <glyph glyph-name="uni0326" unicode="&#x326;" horiz-adv-x="540" 
d="M185 -162h187l-163 -463h-131z" />
    <glyph glyph-name="Omega" unicode="&#x3a9;" horiz-adv-x="1603" 
d="M93 138l341.997 -1.00781c-47.333 34.667 -90.666 74.5 -129.999 119.5s-73.166 94.333 -101.499 148s-50.333 111.667 -66 174s-23.5 128.166 -23.5 197.499c0 102.667 17.5 195.334 52.5 278.001s83.5 153.334 145.5 212.001s135.5 103.834 220.5 135.501
s177.167 47.5 276.5 47.5c103.333 0 196.5 -17.333 279.5 -52s153.5 -82.167 211.5 -142.5s102.667 -131.833 134 -214.5s47 -172 47 -268c0 -71.333 -9.16699 -138.166 -27.5 -200.499s-42.5 -120.166 -72.5 -173.499s-64.667 -101.833 -104 -145.5
s-80 -82.167 -122 -115.5l328 1l-9 -138h-521l-4 121c50.667 34 97.667 73.5 141 118.5s80.833 94.333 112.5 148s56.334 111.334 74.001 173.001s26.5 126.167 26.5 193.5c0 74 -10.5 144.5 -31.5 211.5s-52.333 126 -94 177s-93.667 91.5 -156 121.5
s-134.833 45 -217.5 45c-75.333 0 -144.333 -13.333 -207 -40s-116.5 -64.167 -161.5 -112.5s-80 -106.333 -105 -174s-37.5 -142.167 -37.5 -223.5c0 -67.333 8.5 -132.166 25.5 -194.499s40.667 -120.666 71 -174.999s67 -104.166 110 -149.499s90.5 -85 142.5 -119
l3 -121h-541z" />
    <glyph glyph-name="pi" unicode="&#x3c0;" horiz-adv-x="1288" 
d="M1214 907l-204.002 -0.000976562v-619c0 -15.333 0.5 -31.166 1.5 -47.499s4.66699 -31.5 11 -45.5s16.166 -25.5 29.499 -34.5s32 -13.5 56 -13.5c22.667 0 49.334 4.33301 80.001 13l-2 -30c-0.666992 -10 -1 -20 -1 -30c0 -15.333 0.833008 -30.833 2.5 -46.5
s5.16699 -31.5 10.5 -47.5c-26 -4.66699 -50.5 -8.16699 -73.5 -10.5s-44.167 -3.5 -63.5 -3.5c-39.333 0 -72.333 5.33301 -99 16s-48.167 27.5 -64.5 50.5s-28.166 52.667 -35.499 89s-11 80.166 -11 131.499v628h-371c-10 -139.333 -21.667 -269.333 -35 -390
c-6 -51.333 -12.5 -103.333 -19.5 -156s-14.833 -102.167 -23.5 -148.5s-18.167 -88.166 -28.5 -125.499s-21.166 -66.333 -32.499 -87h-169c16.667 29.333 31.5 65.5 44.5 108.5s24.333 90 34 141s18 104.833 25 161.5s12.833 113.667 17.5 171s8.5 113.666 11.5 168.999
s5.16699 107.333 6.5 156c-60 -1.33301 -112 -7 -156 -17s-84.333 -24.667 -121 -44l-17 131c16.667 12.667 36 23.167 58 31.5s47.167 14.833 75.5 19.5s60.5 7.83398 96.5 9.50098s76.667 2.5 122 2.5h845v-133z" />
    <glyph glyph-name="endash" unicode="&#x2013;" horiz-adv-x="1085" 
d="M1084 489h-1090v137h1090v-137z" />
    <glyph glyph-name="emdash" unicode="&#x2014;" horiz-adv-x="2171" 
d="M2160 489h-2163v137h2163v-137z" />
    <glyph glyph-name="quoteleft" unicode="&#x2018;" horiz-adv-x="553" 
d="M312 1023h-182l154 440h132z" />
    <glyph glyph-name="quoteright" unicode="&#x2019;" horiz-adv-x="553" 
d="M245 1463h181l-154 -440h-132z" />
    <glyph glyph-name="quotesinglbase" unicode="&#x201a;" horiz-adv-x="553" 
d="M231 201h181l-154 -439h-133z" />
    <glyph glyph-name="quotedblleft" unicode="&#x201c;" horiz-adv-x="1024" 
d="M361 1023h-182l154 440h133zM711 1023h-183l154 440h133z" />
    <glyph glyph-name="quotedblright" unicode="&#x201d;" horiz-adv-x="1024" 
d="M312 1463h182l-153 -440h-133zM639 1463h182l-154 -440h-133z" />
    <glyph glyph-name="quotedblbase" unicode="&#x201e;" horiz-adv-x="1024" 
d="M283 201h182l-153 -439h-134zM641 201h183l-154 -439h-133z" />
    <glyph glyph-name="dagger" unicode="&#x2020;" horiz-adv-x="1022" 
d="M433 934h-326v132h326v385h142v-385h344v-132h-358v-821h-128v821z" />
    <glyph glyph-name="daggerdbl" unicode="&#x2021;" horiz-adv-x="1022" 
d="M442 983h-338v132h344l-26 336h171l-21 -336h344v-132h-351v-421h344v-127h-344l26 -322h-171l22 322h-344v127h344v421z" />
    <glyph glyph-name="bullet" unicode="&#x2022;" horiz-adv-x="989" 
d="M833 701c0 -43.333 -9.16504 -83.998 -27.498 -121.998s-43 -71.5 -74 -100.5s-67 -51.833 -108 -68.5s-84.5 -25 -130.5 -25c-46.667 0 -90.5 8.16699 -131.5 24.5s-76.667 38.666 -107 66.999s-54.166 61.166 -71.499 98.499s-26 77 -26 119
c0 42.667 9.16699 83.167 27.5 121.5s43.166 72 74.499 101s67.666 51.833 108.999 68.5s84.666 25 129.999 25c46 0 89.333 -8.16699 130 -24.5s76.167 -38.5 106.5 -66.5s54.333 -60.833 72 -98.5s26.5 -77.5 26.5 -119.5z" />
    <glyph glyph-name="ellipsis" unicode="&#x2026;" horiz-adv-x="1620" 
d="M376 -11h-217v210h217v-210zM916 -11h-217v210h217v-210zM1456 -11h-217v210h217v-210z" />
    <glyph glyph-name="perthousand" unicode="&#x2030;" horiz-adv-x="2386" 
d="M1962 567c-32.667 0 -61.166 -6.33203 -85.499 -18.999s-44.5 -30 -60.5 -52s-28 -47.5 -36 -76.5s-12 -59.5 -12 -91.5c0 -34 4 -65.667 12 -95s20.167 -55 36.5 -77s36.666 -39.167 60.999 -51.5s52.833 -18.5 85.5 -18.5c32 0 60.167 6.5 84.5 19.5
s44.5 30.5 60.5 52.5s28 47.667 36 77s12 60 12 92c0 33.333 -4 64.666 -12 93.999s-20.167 54.833 -36.5 76.5s-36.666 38.667 -61 51c-24.333 12.333 -52.5 18.5 -84.5 18.5zM1959 -26.999c-53.333 0 -100.833 8.5 -142.5 25.5s-76.834 41 -105.501 72
s-50.5 68.333 -65.5 112s-22.5 92.167 -22.5 145.5c0 50.667 7.5 97.5 22.5 140.5s37 80.333 66 112s64.667 56.334 107 74.001s90.833 26.5 145.5 26.5c54 0 101.667 -8.16699 143 -24.5s76.333 -40 105 -71s50.334 -68.5 65.001 -112.5s22 -93.333 22 -148
c0 -50 -7.66699 -96.5 -23 -139.5s-37.5 -80.333 -66.5 -112s-64.5 -56.334 -106.5 -74.001s-90 -26.5 -144 -26.5zM410.001 740.001c-54 0 -101.832 8.50391 -143.499 25.5039s-76.834 41 -105.501 72s-50.5 68.333 -65.5 112s-22.5 92.167 -22.5 145.5
c0 50.667 7.5 97.5 22.5 140.5s36.833 80.167 65.5 111.5s64.167 55.833 106.5 73.5s90.5 26.5 144.5 26.5c54.667 0 103 -8.33301 145 -25s77.167 -40.334 105.5 -71.001s49.833 -67.834 64.5 -111.501s22 -92.834 22 -147.501c0 -50 -7.66699 -96.5 -23 -139.5
s-37.5 -80.333 -66.5 -112s-64.5 -56.334 -106.5 -74.001s-89.667 -26.5 -143 -26.5zM1172 -26.9951c-54 0 -101.832 8.5 -143.499 25.5s-76.834 41 -105.501 72s-50.5 68.333 -65.5 112s-22.5 92.167 -22.5 145.5c0 50.667 7.5 97.5 22.5 140.5s37 80.333 66 112
s64.667 56.334 107 74.001s90.833 26.5 145.5 26.5s102.834 -8.5 144.501 -25.5s76.667 -41 105 -72s49.666 -68.333 63.999 -112s21.5 -92.5 21.5 -146.5c0 -50 -7.5 -96.5 -22.5 -139.5s-37 -80.333 -66 -112s-64.5 -56.334 -106.5 -74.001s-90 -26.5 -144 -26.5z
M1174 567.005c-32.667 0 -61.166 -6.33301 -85.499 -19s-44.5 -30 -60.5 -52s-28 -47.5 -36 -76.5s-12 -59.5 -12 -91.5c0 -34 4 -65.667 12 -95s20.167 -55 36.5 -77s36.666 -39.167 60.999 -51.5s52.833 -18.5 85.5 -18.5c32 0 60 6.5 84 19.5s44 30.667 60 53
s28 48 36 77s12 59.5 12 91.5c0 34 -3.83301 65.5 -11.5 94.5s-19.5 54.333 -35.5 76s-36.167 38.667 -60.5 51s-52.833 18.5 -85.5 18.5zM411.004 1335c-32 0 -60 -6.33398 -84 -19.001s-44 -30 -60 -52s-28 -47.5 -36 -76.5s-12 -59.5 -12 -91.5c0 -34 4 -65.667 12 -95
s20 -55 36 -77s36.167 -39.333 60.5 -52s53.166 -19 86.499 -19c32 0 59.833 6.5 83.5 19.5s43.334 30.5 59.001 52.5s27.5 47.5 35.5 76.5s12 59.5 12 91.5c0 34 -4 65.667 -12 95s-20 54.833 -36 76.5s-36 38.834 -60 51.501s-52.333 19 -85 19zM245.004 -20.9961
l938 1457h149l-934 -1457h-153z" />
    <glyph glyph-name="guilsinglleft" unicode="&#x2039;" horiz-adv-x="642" 
d="M379 914h159l-263 -373l255 -370h-156l-269 370z" />
    <glyph glyph-name="guilsinglright" unicode="&#x203a;" horiz-adv-x="642" 
d="M260 171h-157l262 371l-254 372h155l271 -372z" />
    <glyph glyph-name="fraction" unicode="&#x2044;" horiz-adv-x="368" 
d="M717 1436l-903 -1436h-151l905 1436h149z" />
    <glyph glyph-name="foursuperior" unicode="&#x2074;" horiz-adv-x="897" 
d="M356 615v188h-378v91l366 518h134v-502h109l10 -107h-121v-188h-120zM354 910v180l3 156l-240 -336h237z" />
    <glyph glyph-name="Euro" unicode="&#x20ac;" 
d="M98 654l102.002 0.00195312c-1.33301 16 -2.16602 34.167 -2.49902 54.5s0.166992 45.5 1.5 75.5h-124l22 138h121c14 76.667 36.5 147.167 67.5 211.5s70.167 119.833 117.5 166.5s102.666 83 165.999 109s134.666 39 213.999 39c66.667 0 126.667 -9.66699 180 -29
s101 -49 143 -89l-36 -189c-36 54 -79.333 94.5 -130 121.5s-105.334 40.5 -164.001 40.5c-54 0 -102 -10 -144 -30s-78.667 -47.333 -110 -82s-57.5 -75.167 -78.5 -121.5s-37.167 -95.5 -48.5 -147.5h592l-20 -138h-590c-2 -22.667 -2.5 -44.834 -1.5 -66.501
s1.83301 -42.167 2.5 -61.5v-2h575l-19 -138h-542c8 -58 21 -110.833 39 -158.5s42.167 -88.834 72.5 -123.501s67.166 -61.5 110.499 -80.5s94.333 -28.5 153 -28.5c50 0 101.5 10.333 154.5 31s107.167 53 162.5 97l-1 -178c-50 -34 -102.667 -58.5 -158 -73.5
s-113.333 -22.5 -174 -22.5c-82 0 -154.167 13 -216.5 39s-115.666 62.5 -159.999 109.5s-79.833 103.5 -106.5 169.5s-45 139 -55 219h-135z" />
    <glyph glyph-name="trademark" unicode="&#x2122;" horiz-adv-x="1869" 
d="M1009 1451l236 -551l250 551h180v-765h-122v595l-274 -595h-80l-259 594v-594h-121v765h190zM708 1451l-1 -101h-260v-664h-124v664h-253v101h638z" />
    <glyph glyph-name="partialdiff" unicode="&#x2202;" horiz-adv-x="1167" 
d="M495 111c52 0 100 14.334 144 43.001s82.667 67.667 116 117s61.166 107 83.499 173s37.833 136.333 46.5 211c-10 28 -23.5 55 -40.5 81s-37.167 48.833 -60.5 68.5s-49.666 35.334 -78.999 47.001s-61.333 17.5 -96 17.5c-50 0 -96.833 -12.167 -140.5 -36.5
s-81.5 -57.166 -113.5 -98.499s-57.167 -89.333 -75.5 -144s-27.5 -112.334 -27.5 -173.001c0 -46 5.66699 -87.833 17 -125.5s27.5 -69.834 48.5 -96.501s46.5 -47.334 76.5 -62.001s63.667 -22 101 -22zM280 1442c40 26.667 86.6641 48.5059 139.997 65.5059
s109.333 25.5 168 25.5c74.667 0 142 -13.5 202 -40.5s111 -68.333 153 -124s74.333 -126.334 97 -212.001s34 -187.167 34 -304.5c0 -72 -5.16699 -143.667 -15.5 -215s-26.166 -139.5 -47.499 -204.5s-48 -125.333 -80 -181s-69.667 -103.834 -113 -144.501
s-92.166 -72.667 -146.499 -96s-114.166 -35 -179.499 -35c-67.333 0 -126.5 11.333 -177.5 34s-93.667 54 -128 94s-60.166 87 -77.499 141s-26 112.333 -26 175c0 82 13.167 158.5 39.5 229.5s62.166 132.5 107.499 184.5s98.5 93 159.5 123s126.5 45 196.5 45
c38 0 72.833 -4.5 104.5 -13.5s60.334 -20.833 86.001 -35.5s48.5 -31.334 68.5 -50.001s37 -38 51 -58c0.666992 -2 2.66699 -5 6 -9c0 9.33301 0.166992 21.166 0.5 35.499s0.5 27.5 0.5 39.5c0 76 -7.83301 144.167 -23.5 204.5s-38 111.5 -67 153.5
s-64.333 74.167 -106 96.5s-88.834 33.5 -141.501 33.5c-24 0 -48.167 -2.5 -72.5 -7.5s-48.333 -11.833 -72 -20.5s-46.5 -18.834 -68.5 -30.501s-42.333 -23.834 -61 -36.501z" />
    <glyph glyph-name="uni2206" unicode="&#x2206;" horiz-adv-x="1314" 
d="M1263 0h-1223v80l521 1349h182l520 -1349v-80zM1033 162l-352 949l-34 107l-32 -107l-346 -949h764z" />
    <glyph glyph-name="product" unicode="&#x220f;" horiz-adv-x="1568" 
d="M1440 1278h-113v-1607h-178v1607h-723v-1607h-175v1607h-125l-16 145h1346z" />
    <glyph glyph-name="summation" unicode="&#x2211;" horiz-adv-x="1264" 
d="M1220 -329h-1163v90l640 791l-618 776v95h1096v-142h-850l46 -59l527 -661l-564 -683l-40 -59h926v-148z" />
    <glyph glyph-name="minus" unicode="&#x2212;" horiz-adv-x="1458" 
d="M1247 633v-137h-1049v137h1049z" />
    <glyph glyph-name="radical" unicode="&#x221a;" horiz-adv-x="1314" 
d="M1212 1596l-466 -1749h-135l-332 843l-172 -28l-20 112l295 51l229 -611l58 -173l40 176l373 1379h130z" />
    <glyph glyph-name="infinity" unicode="&#x221e;" horiz-adv-x="1724" 
d="M1482 618c0 28.667 -5.49805 55.6699 -16.498 81.0029s-26.333 47.666 -46 66.999s-43.334 34.666 -71.001 45.999s-57.834 17 -90.501 17c-33.333 0 -65.166 -6.66699 -95.499 -20s-59.333 -31 -87 -53s-53.834 -47.167 -78.501 -75.5s-47.334 -57.833 -68.001 -88.5
c30 -38.667 58.5 -72.834 85.5 -102.501s53.667 -54.5 80 -74.5s53.333 -35 81 -45s56.834 -15 87.501 -15c37.333 0 69.833 6.83301 97.5 20.5s50.5 32.167 68.5 55.5s31.333 51 40 83s13 66.667 13 104zM226.002 592.003c0 -30 5.66602 -59.3311 16.999 -87.998
s27.333 -54 48 -76s45.5 -39.667 74.5 -53s61.5 -20 97.5 -20c32 0 62.833 6.16699 92.5 18.5s58.167 29 85.5 50s53.333 45.833 78 74.5s48.667 59 72 91c-23.333 34 -47.5 65.5 -72.5 94.5s-51.333 54.333 -79 76s-57 38.667 -88 51s-63.833 18.5 -98.5 18.5
c-36 0 -68 -6.33301 -96 -19s-51.667 -29.834 -71 -51.501s-34.166 -46.834 -44.499 -75.501s-15.5 -59 -15.5 -91zM1621 595.005c0 -53.333 -9.83203 -102 -29.499 -146s-46 -81.833 -79 -113.5s-71.333 -56.167 -115 -73.5s-89.5 -26 -137.5 -26
c-74 0 -142.667 21 -206 63s-128 105 -194 189c-28.667 -36.667 -58 -70.5 -88 -101.5s-61.5 -57.667 -94.5 -80s-67.5 -39.666 -103.5 -51.999s-74 -18.5 -114 -18.5c-54 0 -103.333 10 -148 30s-83 47.167 -115 81.5s-56.833 74.333 -74.5 120s-26.5 93.834 -26.5 144.501
c0 46 9.83301 89.167 29.5 129.5s46 75.5 79 105.5s71.167 53.667 114.5 71s88.666 26 135.999 26c40.667 0 79.334 -6 116.001 -18s71.667 -29 105 -51s65.333 -48.5 96 -79.5s60.667 -65.5 90 -103.5c28 36.667 56.667 70.5 86 101.5s60.166 57.667 92.499 80
s66.833 39.666 103.5 51.999s76 18.5 118 18.5c54.667 0 104.167 -8.66699 148.5 -26s82 -41.5 113 -72.5s55 -67.833 72 -110.5s25.5 -89.334 25.5 -140.001z" />
    <glyph glyph-name="integral" unicode="&#x222b;" horiz-adv-x="702" 
d="M393 1255c0 54 5 104.002 15 150.002s26.5 85.667 49.5 119s53.667 59.5 92 78.5s85.833 28.5 142.5 28.5c14 0 26.667 -0.5 38 -1.5s22.166 -2.5 32.499 -4.5s20.833 -4.33301 31.5 -7s22 -5.33398 34 -8.00098l2 -129c-13.333 5.33301 -30.166 9.16602 -50.499 11.499
s-40.166 3.5 -59.499 3.5c-34 0 -61.667 -4.66699 -83 -14s-37.833 -23.166 -49.5 -41.499s-19.667 -41 -24 -68s-6.5 -58.167 -6.5 -93.5v-1302c0 -54 -4.83301 -104 -14.5 -150s-26 -85.667 -49 -119s-53.5 -59.5 -91.5 -78.5s-85.333 -28.5 -142 -28.5
c-14 0 -26.667 0.5 -38 1.5s-22.166 2.5 -32.499 4.5s-20.833 4.16699 -31.5 6.5s-22 5.16602 -34 8.49902l-2 129c13.333 -5.33301 30.166 -9.16602 50.499 -11.499s40.166 -3.5 59.499 -3.5c34 0 61.5 4.66699 82.5 14s37.333 23.166 49 41.499s19.5 41 23.5 68
s6 58.167 6 93.5v1302z" />
    <glyph glyph-name="approxequal" unicode="&#x2248;" horiz-adv-x="1351" 
d="M1187 518c-8.66699 -38 -20.8262 -72.834 -36.4932 -104.501s-35.5 -58.667 -59.5 -81s-52 -39.666 -84 -51.999s-68.333 -18.5 -109 -18.5c-40 0 -80.833 8.16699 -122.5 24.5s-89.834 40.5 -144.501 72.5c-34 19.333 -65.833 35.333 -95.5 48s-58.5 19 -86.5 19
c-48.667 0 -87.334 -15 -116.001 -45s-50.334 -70 -65.001 -120l-114 28c19.333 80 54.666 142.833 105.999 188.5s115.333 68.5 192 68.5c30 0 59.167 -4.16699 87.5 -12.5s56.166 -18.5 83.499 -30.5s53.666 -25.333 78.999 -40s49.666 -28 72.999 -40
s45.833 -22.167 67.5 -30.5s42.167 -12.5 61.5 -12.5c42 0 76.5 14.5 103.5 43.5s50.167 69.833 69.5 122.5zM1185.01 889.999c-8 -38.667 -20.002 -73.668 -36.002 -105.001s-36 -58.166 -60 -80.499s-52 -39.666 -84 -51.999s-68.333 -18.5 -109 -18.5
c-21.333 0 -42.166 2 -62.499 6s-41.166 10.167 -62.499 18.5s-43.833 18.5 -67.5 30.5s-49.167 26 -76.5 42c-34 19.333 -65.667 35.5 -95 48.5s-58 19.5 -86 19.5c-48 0 -86.167 -15 -114.5 -45s-49.833 -70 -64.5 -120l-115 27c18 79.333 52.833 141.833 104.5 187.5
s116.167 68.5 193.5 68.5c42.667 0 83.5 -7.83301 122.5 -23.5s81.5 -36.834 127.5 -63.501c44 -26 82.167 -45.5 114.5 -58.5s61.5 -19.5 87.5 -19.5c42 0 76.667 14.167 104 42.5s50.333 69.5 69 123.5z" />
    <glyph glyph-name="notequal" unicode="&#x2260;" horiz-adv-x="1351" 
d="M989 1105l-127 -256h310l10 -121h-378l-148 -283h517l9 -120h-585l-140 -279l-122 18l128 261h-293l-9 120h363l147 283h-501l-10 121h568l136 274z" />
    <glyph glyph-name="lessequal" unicode="&#x2264;" horiz-adv-x="1351" 
d="M1175 9h-1014v122h1014v-122zM1146 216l-949 450v81l949 472v-140l-776 -370l2 1l774 -353v-141z" />
    <glyph glyph-name="greaterequal" unicode="&#x2265;" horiz-adv-x="1350" 
d="M1171 9h-1010v122h1010v-122zM196 1221l956 -473v-80l-960 -450v141l782 348l-778 374v140z" />
    <glyph glyph-name="lozenge" unicode="&#x25ca;" horiz-adv-x="1248" 
d="M680 214l299 497l-293 502l-61 111l-65 -117l-299 -494l291 -502l63 -113zM1130 712l-462 -757h-106l-450 756l458 759h107z" />
    <glyph glyph-name="fi" unicode="&#xfb01;" horiz-adv-x="1205" 
d="M411 0l-165.004 0.000976562v919h-200l-1 107h201l2 112c0.666992 54 6 104 16 150s26.333 85.667 49 119s52.834 59.5 90.501 78.5s84.834 28.5 141.501 28.5c14 0 26.667 -0.5 38 -1.5s22.166 -2.5 32.499 -4.5s20.833 -4.33301 31.5 -7s22 -5.33398 34 -8.00098
l2 -129c-13.333 5.33301 -30.166 9.16602 -50.499 11.499s-40.166 3.5 -59.499 3.5c-34 0 -61.5 -4.66699 -82.5 -14s-37.167 -23.166 -48.5 -41.499s-19.166 -41 -23.499 -68s-6.5 -58.167 -6.5 -93.5l-1 -136h623v-1026h-165v919h-458v-919zM1030 1462v-155h-153v155h153z
" />
    <glyph glyph-name="fl" unicode="&#xfb02;" horiz-adv-x="1205" 
d="M411 0l-165.004 0.000976562v919h-200l-1 107h201l2 112c0.666992 54 6 104 16 150s26.333 85.667 49 119s52.834 59.5 90.501 78.5s84.834 28.5 141.501 28.5c14 0 26.667 -0.5 38 -1.5s22.166 -2.5 32.499 -4.5s20.833 -4.33301 31.5 -7s22 -5.33398 34 -8.00098
l2 -129c-13.333 5.33301 -30.166 9.16602 -50.499 11.499s-40.166 3.5 -59.499 3.5c-34 0 -61.5 -4.66699 -82.5 -14s-37.167 -23.166 -48.5 -41.499s-19.166 -41 -23.499 -68s-6.5 -58.167 -6.5 -93.5l-1 -136h247l1 -107h-248v-919zM1035 1492v-1492h-165v1492h165z" />
    <glyph glyph-name=".null" horiz-adv-x="0" 
 />
    <glyph glyph-name="periodcentered" horiz-adv-x="444" 
d="M293 513h-217v210h217v-210z" />
    </font>
</defs>
</svg>
